El Rey Escorpión: El Libro de las Almas (2018) Full 1080p Latino

Descargar El Rey Escorpión: El Libro de las Almas (2018) Full 1080p Latino; Mega, Google Drive. El Rey Escorpión se une a una guerrera llamada Tala, que es hermana del Rey Nubio. Juntos, buscan una reliquia legendaria conocida como El libro de las almas, que les permitirá acabar con un malvado señor de la guerra.



Titulo Original The Scorpion King: Book of Souls
Año 2018-10-23
Duracion 1h 42m
Director
Reparto , , , , , , , ,
Productora
Genero
Titulo original The Scorpion King: Book of Souls
Audio Español Latino DTS 5.1 BLURAY - Ingles DTS 5.1 BLURAY
Calidad: Full 1080p Resolucion: 1920x1080p Formato: MKV
Encoder: CinefiloCool Peso: 6.98 GiB Duracion: 1h 42m
Subtitulos: Español Latino PGS - Ingles PGS
  • No hay video embed

El Rey Escorpion El Libro de las Almas (2018) Full 1080p Latino.mkv
Format: Matroska
Format version: Version 4 / Version 2
File size : 6.98 GiB
Duration: 1 h 41 min
Overall bit rate: 9 817 kb/s
Movie name: CinemaniaHDD.Net
Encoded date: UTC 2018-10-30 04:34:50 / UTC 2018-10-29T10:48:14Z
Writing application : mkvmerge v25.0.0 ('Prog Noir') 64-bit
Writing library : libebml v1.3.6 + libmatroska v1.4.9 / Lavf57.7.2

Video
ID: 1
Format: AVC
Format/Info : Advanced Video Codec
Format profile: High@L4.1
Format settings : CABAC / 4 Ref Frames
Format settings, CABAC: Yes
Format settings, RefFrames: 4 frames
Codec ID: V_MPEG4/ISO/AVC
Duration: 1 h 41 min
Bit rate: 7 345 kb/s
Width : 1 920 pixels
Height: 1 080 pixels
Display aspect ratio: 16:9
Frame rate mode : Constant
Frame rate: 23.976 (24000/1001) FPS
Color space : YUV
Chroma subsampling: 4:2:0
Bit depth : 8 bits
Scan type : Progressive
Bits/(Pixel*Frame): 0.148
Stream size : 5.22 GiB (75%)
Title : Full HD1080p [Bluray]
Writing library : x264 core 155 r2893 b00bcaf
Encoding settings : cabac=1 / ref=4 / deblock=1:0:0 / analyse=0x3:0x133 / me=esa / subme=10 / psy=1 / psy_rd=1.00:0.00 / mixed_ref=1 / me_range=24 / chroma_me=1 / trellis=2 / 8x8dct=1 / cqm=0 / deadzone=21,11 / fast_pskip=1 / chroma_qp_offset=-2 / threads=34 / lookahead_threads=5 / sliced_threads=0 / nr=0 / decimate=1 / interlaced=0 / bluray_compat=0 / constrained_intra=0 / bframes=8 / b_pyramid=2 / b_adapt=2 / b_bias=0 / direct=3 / weightb=1 / open_gop=0 / weightp=2 / keyint=240 / keyint_min=24 / scenecut=40 / intra_refresh=0 / rc_lookahead=60 / rc=crf / mbtree=1 / crf=20.0 / qcomp=0.60 / qpmin=0 / qpmax=69 / qpstep=4 / vbv_maxrate=62500 / vbv_bufsize=78125 / crf_max=0.0 / nal_hrd=none / filler=0 / ip_ratio=1.40 / aq=1:1.00
Default : Yes
Forced: No
Color range : Limited
Color primaries : BT.709
Transfer characteristics: BT.709
Matrix coefficients : BT.709
Statistics Tags Issue : mkvmerge v25.0.0 ('Prog Noir') 64-bit 2018-10-30 04:34:50 / mkvmerge v25.0.0 ('Prog Noir') 64-bit 2018-10-30 04:34:50 / UTC 2018-10-29T10:48:14Z
FromStats_BitRate : 7524540
FromStats_Duration: 01:41:50.521000000
FromStats_FrameCount: 146506
FromStats_StreamSize: 5747357744

Audio #1
ID: 2
Format: DTS
Format/Info : Digital Theater Systems
Mode: 16
Format settings, Endianness : Big
Codec ID: A_DTS
Duration: 1 h 41 min
Bit rate mode : Constant
Bit rate: 768 kb/s
Channel(s): 6 channels
Channel positions : Front: L C R, Side: L R, LFE
Sampling rate : 48.0 kHz
Frame rate: 93.750 FPS (512 SPF)
Bit depth : 24 bits
Compression mode: Lossy
Delay relative to video : 12 ms
Stream size : 559 MiB (8%)
Title : DTS_5.1_Bluray_Esp
Language: Spanish
Default : Yes
Forced: No
Statistics Tags Issue : mkvmerge v25.0.0 ('Prog Noir') 64-bit 2018-10-30 04:34:50 / mkvmerge v25.0.0 ('Prog Noir') 64-bit 2018-10-30 04:34:50 / UTC 2018-10-29T10:48:14Z
FromStats_BitRate : 767999
FromStats_Duration: 01:41:50.593000000
FromStats_FrameCount: 572868
FromStats_StreamSize: 586616832

Audio #2
ID: 3
Format: DTS
Format/Info : Digital Theater Systems
Mode: 16
Format settings, Endianness : Big
Codec ID: A_DTS
Duration: 1 h 41 min
Bit rate mode : Constant
Bit rate: 1 509 kb/s
Channel(s): 6 channels
Channel positions : Front: L C R, Side: L R, LFE
Sampling rate : 48.0 kHz
Frame rate: 93.750 FPS (512 SPF)
Bit depth : 24 bits
Compression mode: Lossy
Delay relative to video : 12 ms
Stream size : 1.07 GiB (15%)
Title : DTS_5.1_Bluray_Eng
Language: English
Default : No
Forced: No
Statistics Tags Issue : mkvmerge v25.0.0 ('Prog Noir') 64-bit 2018-10-30 04:34:50 / mkvmerge v25.0.0 ('Prog Noir') 64-bit 2018-10-30 04:34:50 / UTC 2018-10-29T10:48:14Z
FromStats_BitRate : 1508999
FromStats_Duration: 01:41:50.593000000
FromStats_FrameCount: 572868
FromStats_StreamSize: 1152610416

Text #1
ID: 4
Format: PGS
Muxing mode : zlib
Codec ID: S_HDMV/PGS
Codec ID/Info : Picture based subtitle format used on BDs/HD-DVDs
Title : Sub_Esp [PGS]
Language: Spanish
Default : Yes
Forced: No
Statistics Tags Issue : mkvmerge v25.0.0 ('Prog Noir') 64-bit 2018-10-30 04:34:50 / mkvmerge v25.0.0 ('Prog Noir') 64-bit 2018-10-30 04:34:50 / UTC 2018-10-29T10:48:14Z
FromStats_BitRate : 20221
FromStats_Duration: 01:41:13.943000000
FromStats_FrameCount: 1530
FromStats_StreamSize: 15353304

Text #2
ID: 5
Format: PGS
Muxing mode : zlib
Codec ID: S_HDMV/PGS
Codec ID/Info : Picture based subtitle format used on BDs/HD-DVDs
Title : Sub_Eng [PGS]
Language: English
Default : No
Forced: No
Statistics Tags Issue : mkvmerge v25.0.0 ('Prog Noir') 64-bit 2018-10-30 04:34:50 / mkvmerge v25.0.0 ('Prog Noir') 64-bit 2018-10-30 04:34:50 / UTC 2018-10-29T10:48:14Z
FromStats_BitRate : 23341
FromStats_Duration: 01:36:21.568000000
FromStats_FrameCount: 1666
FromStats_StreamSize: 16869122

Menu
00:00:00.000: :Chapter 1
00:06:22.382: :Chapter 2
00:13:15.795: :Chapter 3
00:15:55.955: :Chapter 4
00:17:33.052: :Chapter 5
00:22:09.328: :Chapter 6
00:27:49.668: :Chapter 7
00:33:46.024: :Chapter 8
00:39:03.341: :Chapter 9
00:43:51.629: :Chapter 10
00:49:44.982: :Chapter 11
00:53:48.225: :Chapter 12
01:00:50.647: :Chapter 13
01:07:22.038: :Chapter 14
01:12:01.317: :Chapter 15
01:18:37.713: :Chapter 16
01:21:24.880: :Chapter 17
01:25:22.117: :Chapter 18
01:30:35.430: :Chapter 19
01:36:58.813: :Chapter 20

Download Links

CONTRASEÑA PARA DESCOMPRIMIR

APORTES NUEVOS

cinemaniahdd.com

APORTES VIEJOS

CinemaniaHD.org

COMPRA O RENUEVA TU PREMIUM DE UPLOADED DESDE EL SIGUIENTE LINK:

http://ul.to/ref/9821430

SI GUSTAS PUEDES SEGUIRNOS EN LAS REDES SOCIALES

Facebook

Twitter

Post Relacionados