El séptimo hijo (2014) Full 1080p Latino

Siglo XVIII. El joven Thomas (Ben Barnes, ‘El retrato de Dorian Gray’) tendrá que aprender a ser mago y luchar y combatir con los malos espíritus de la mano de un poderoso espectro (interpretado por Jeff Bridges, ‘El gran Lebowski’) que lo instruirá en el manejo de las artes del más allá. Thomas, que es el séptimo hijo de un séptimo hijo (por eso debe irse con el Maestro Gregory), tiene que abandonar su hogar e internarse en una peligrosa aventura que lo llevará a los abismos del mundo físico, en un sinfín de aventuras extraordinarias tan maravillosas como espeluznantes. Su primer reto será atrapar a una poderosa bruja (Julianne Moore, ‘Magnolia’) que se ha escapado y que quiere sembrar el mal por donde pase después de haber sido engañado por una joven, Alice (Alicia Vikander, ‘A Royal Affair’) que le seduce para conseguir sus propósitos.



Titulo original Seventh Son
Audio Español Latino DTS 5.1 BLURAY - Ingles DTS 5.1 BLURAY
Calidad: Full 1080p Resolucion: 1920x1080p Formato: MKV
Encoder: Dracarys Peso: 4.90 GiB Duracion: 1h 42m
Subtitulos: Español Latino PGS - Ingles PGS
  • No hay video embed

Format                                   : Matroska
Format version                           : Version 4 / Version 2
File size                                : 4.90 GiB
Duration                                 : 1 h 41 min
Overall bit rate                         : 6 874 kb/s
Movie name                               : CinemaniaHDD.net
Encoded date                             : UTC 2018-10-11 18:50:15 / UTC 2018-08-21T22:19:48Z
Writing application                      : mkvmerge v15.0.0 ('Duel with the Devil') 64-bit
Writing library                          : libebml v1.3.5 + libmatroska v1.4.5 / Lavf57.7.2

Video
ID                                       : 1
Format                                   : AVC
Format/Info                              : Advanced Video Codec
Format profile                           : High@L4.1
Format settings                          : CABAC / 4 Ref Frames
Format settings, CABAC                   : Yes
Format settings, RefFrames               : 4 frames
Codec ID                                 : V_MPEG4/ISO/AVC
Duration                                 : 1 h 41 min
Bit rate                                 : 4 460 kb/s
Width                                    : 1 920 pixels
Height                                   : 1 080 pixels
Display aspect ratio                     : 16:9
Frame rate mode                          : Constant
Frame rate                               : 23.976 (24000/1001) FPS
Color space                              : YUV
Chroma subsampling                       : 4:2:0
Bit depth                                : 8 bits
Scan type                                : Progressive
Bits/(Pixel*Frame)                       : 0.090
Stream size                              : 3.18 GiB (65%)
Writing library                          : x264 core 148 r2708 86b7198
Encoding settings                        : cabac=1 / ref=4 / deblock=1:0:0 / analyse=0x3:0x133 / me=esa / subme=10 / psy=1 / psy_rd=1.00:0.00 / mixed_ref=1 / me_range=24 / chroma_me=1 / trellis=2 / 8x8dct=1 / cqm=0 / deadzone=21,11 / fast_pskip=1 / chroma_qp_offset=-2 / threads=34 / lookahead_threads=5 / sliced_threads=0 / nr=0 / decimate=1 / interlaced=0 / bluray_compat=0 / constrained_intra=0 / bframes=8 / b_pyramid=2 / b_adapt=2 / b_bias=0 / direct=3 / weightb=1 / open_gop=0 / weightp=2 / keyint=240 / keyint_min=24 / scenecut=40 / intra_refresh=0 / rc_lookahead=60 / rc=crf / mbtree=1 / crf=20.0 / qcomp=0.60 / qpmin=0 / qpmax=69 / qpstep=4 / vbv_maxrate=62500 / vbv_bufsize=78125 / crf_max=0.0 / nal_hrd=none / filler=0 / ip_ratio=1.40 / aq=1:1.00
Language                                 : English
Default                                  : Yes
Forced                                   : No
Color range                              : Limited
Color primaries                          : BT.709
Transfer characteristics                 : BT.709
Matrix coefficients                      : BT.709
Statistics Tags Issue                    : mkvmerge v15.0.0 ('Duel with the Devil') 64-bit 2018-10-11 18:50:15 / mkvmerge v15.0.0 ('Duel with the Devil') 64-bit 2018-10-11 18:50:15 / UTC 2018-08-21T22:19:48Z
FromStats_BitRate                        : 4580826
FromStats_Duration                       : 01:41:59.697000000
FromStats_FrameCount                     : 146726
FromStats_StreamSize                     : 3504159107

Audio #1
ID                                       : 2
Format                                   : DTS
Format/Info                              : Digital Theater Systems
Mode                                     : 16
Format settings, Endianness              : Big
Codec ID                                 : A_DTS
Duration                                 : 1 h 41 min
Bit rate mode                            : Constant
Bit rate                                 : 768 kb/s
Channel(s)                               : 6 channels
Channel positions                        : Front: L C R, Side: L R, LFE
Sampling rate                            : 48.0 kHz
Frame rate                               : 93.750 FPS (512 SPF)
Bit depth                                : 24 bits
Compression mode                         : Lossy
Stream size                              : 560 MiB (11%)
Language                                 : Spanish
Default                                  : Yes
Forced                                   : No
Statistics Tags Issue                    : mkvmerge v15.0.0 ('Duel with the Devil') 64-bit 2018-10-11 18:50:15 / mkvmerge v15.0.0 ('Duel with the Devil') 64-bit 2018-10-11 18:50:15 / UTC 2018-08-21T22:19:48Z
FromStats_BitRate                        : 768000
FromStats_Duration                       : 01:41:59.744000000
FromStats_FrameCount                     : 573726
FromStats_StreamSize                     : 587495424

Audio #2
ID                                       : 3
Format                                   : DTS
Format/Info                              : Digital Theater Systems
Mode                                     : 16
Format settings, Endianness              : Big
Codec ID                                 : A_DTS
Duration                                 : 1 h 41 min
Bit rate mode                            : Constant
Bit rate                                 : 1 509 kb/s
Channel(s)                               : 6 channels
Channel positions                        : Front: L C R, Side: L R, LFE
Sampling rate                            : 48.0 kHz
Frame rate                               : 93.750 FPS (512 SPF)
Bit depth                                : 24 bits
Compression mode                         : Lossy
Stream size                              : 1.08 GiB (22%)
Language                                 : English
Default                                  : No
Forced                                   : No
Statistics Tags Issue                    : mkvmerge v15.0.0 ('Duel with the Devil') 64-bit 2018-10-11 18:50:15 / mkvmerge v15.0.0 ('Duel with the Devil') 64-bit 2018-10-11 18:50:15 / UTC 2018-08-21T22:19:48Z
FromStats_BitRate                        : 1508999
FromStats_Duration                       : 01:41:59.734000000
FromStats_FrameCount                     : 573725
FromStats_StreamSize                     : 1154334700

Text #1
ID                                       : 4
Format                                   : PGS
Muxing mode                              : zlib
Codec ID                                 : S_HDMV/PGS
Codec ID/Info                            : Picture based subtitle format used on BDs/HD-DVDs
Language                                 : English
Default                                  : No
Forced                                   : No
Statistics Tags Issue                    : mkvmerge v15.0.0 ('Duel with the Devil') 64-bit 2018-10-11 18:50:15 / mkvmerge v15.0.0 ('Duel with the Devil') 64-bit 2018-10-11 18:50:15 / UTC 2018-08-21T22:19:48Z
FromStats_BitRate                        : 26317
FromStats_Duration                       : 01:32:25.540000000
FromStats_FrameCount                     : 2257
FromStats_StreamSize                     : 18243025

Text #2
ID                                       : 5
Format                                   : PGS
Muxing mode                              : zlib
Codec ID                                 : S_HDMV/PGS
Codec ID/Info                            : Picture based subtitle format used on BDs/HD-DVDs
Language                                 : Spanish
Default                                  : No
Forced                                   : No
Statistics Tags Issue                    : mkvmerge v15.0.0 ('Duel with the Devil') 64-bit 2018-10-11 18:50:15 / mkvmerge v15.0.0 ('Duel with the Devil') 64-bit 2018-10-11 18:50:15 / UTC 2018-08-21T22:19:48Z
FromStats_BitRate                        : 19604
FromStats_Duration                       : 01:31:54.592000000
FromStats_FrameCount                     : 1526
FromStats_StreamSize                     : 13514050

Text #3
ID                                       : 6
Format                                   : PGS
Muxing mode                              : zlib
Codec ID                                 : S_HDMV/PGS
Codec ID/Info                            : Picture based subtitle format used on BDs/HD-DVDs
Title                                    : Forzado
Language                                 : Spanish
Default                                  : Yes
Forced                                   : Yes
Statistics Tags Issue                    : mkvmerge v15.0.0 ('Duel with the Devil') 64-bit 2018-10-11 18:50:15 / mkvmerge v15.0.0 ('Duel with the Devil') 64-bit 2018-10-11 18:50:15 / UTC 2018-08-21T22:19:48Z
FromStats_BitRate                        : 413
FromStats_Duration                       : 00:10:19.828000000
FromStats_FrameCount                     : 6
FromStats_StreamSize                     : 32040

Menu
00:00:00.000                             : :Chapter 1
00:04:50.415                             : :Chapter 2
00:10:28.545                             : :Chapter 3
00:16:40.583                             : :Chapter 4
00:22:40.359                             : :Chapter 5
00:27:40.450                             : :Chapter 6
00:30:17.691                             : :Chapter 7
00:36:45.203                             : :Chapter 8
00:42:37.388                             : :Chapter 9
00:49:54.742                             : :Chapter 10
00:54:44.948                             : :Chapter 11
00:57:48.548                             : :Chapter 12
01:02:53.144                             : :Chapter 13
01:06:53.968                             : :Chapter 14
01:11:29.285                             : :Chapter 15
01:18:36.921                             : :Chapter 16
01:22:10.300                             : :Chapter 17
01:25:32.669                             : :Chapter 18
01:30:15.035                             : :Chapter 19
01:33:21.096                             : :Chapter 20

 

Download Links

CONTRASEÑA PARA DESCOMPRIMIR

APORTES NUEVOS

cinemaniahdd.com

APORTES VIEJOS

CinemaniaHD.org

COMPRA O RENUEVA TU PREMIUM DE UPLOADED DESDE EL SIGUIENTE LINK:

http://ul.to/ref/9821430

SI GUSTAS PUEDES SEGUIRNOS EN LAS REDES SOCIALES

Facebook

Twitter

Post Relacionados