Escuela Nocturna (2018) EXTENDED FULL HD 1080p Español Latino

A Teddy Walker (Kevin Hart) le acaban de decir que tiene dislexia, además de otras discapacidades de aprendizaje. Para superar este problema y conseguir un trabajo mejor, Teddy decide ir a la escuela nocturna. Allí se juntará con un grupo de inadaptados, obligados a asistir a clases para adultos para conseguir un objetivo inalcanzable: aprobar el examen de educación secundaria. Eso sí, no será fácil porque van a comprimir lo aprendido en 4 años de instituto en un solo semestre. Además, Carrie (Tiffany Haddish) va a ser su profesora, y no será para nada una enseñanza convencional. Teddy y compañía serán capaces de cualquier cosa con tal de aprobar la secundaria.

Comedia dirigida por Malcolm D. Lee (Plan de Chicas, La barbería: Todo el mundo necesita un corte) y protagonizada por el actor y humorista Kevin Hart (Jumanji: Bienvenidos a la jungla, Un espía y medio), que además es uno de los guionistas del filme. Completan el reparto Tiffany Haddish (Plan de chicas), Mary Lynn Rajskub (Wilson), Rob Riggle (12 valientes), Taran Killam (Asesinos internacionales), Ben Schwartz (Parks and Recreation), Al Madrigal (Descontroladas) y Anne Winters (Por trece razones).



Titulo original Night School
Audio Español Latino DTS 5.1 BLURAY - Ingles DTS 5.1 BLURAY
Calidad: Full 1080p Resolucion: 1920x1080 Formato: MKV
Encoder: chesse92 Peso: 5.28 GiB Duracion: 1h 51m
Subtitulos: Español Latino PGS - Ingles PGS
  • No hay video embed

Night School (2018) Full HD 1080p Latino.mkv
Format: Matroska
Format version: Version 4
File size : 5.28 GiB
Duration: 1 h 56 min
Overall bit rate: 6 516 kb/s
Movie name: CinemaniaHD.net
Encoded date: UTC 2018-12-23 20:04:35 / UTC 2018-12-23T07:08:51Z
Writing application : mkvmerge v28.2.0 ('The Awakening') 64-bit
Writing library : libebml v1.3.6 + libmatroska v1.4.9 / Lavf57.7.2

Video
ID: 1
Format: AVC
Format/Info : Advanced Video Codec
Format profile: High@L4.1
Format settings : CABAC / 4 Ref Frames
Format settings, CABAC: Yes
Format settings, ReFrames : 4 frames
Codec ID: V_MPEG4/ISO/AVC
Duration: 1 h 56 min
Bit rate: 4 199 kb/s
Width : 1 920 pixels
Height: 1 080 pixels
Display aspect ratio: 16:9
Frame rate mode : Constant
Frame rate: 23.976 (24000/1001) FPS
Color space : YUV
Chroma subsampling: 4:2:0
Bit depth : 8 bits
Scan type : Progressive
Bits/(Pixel*Frame): 0.084
Stream size : 3.40 GiB (64%)
Writing library : x264 core 155 r2901 7d0ff22
Encoding settings : cabac=1 / ref=4 / deblock=1:0:0 / analyse=0x3:0x133 / me=tesa / subme=11 / psy=1 / psy_rd=1.00:0.00 / mixed_ref=1 / me_range=24 / chroma_me=1 / trellis=2 / 8x8dct=1 / cqm=0 / deadzone=21,11 / fast_pskip=0 / chroma_qp_offset=-2 / threads=34 / lookahead_threads=8 / sliced_threads=0 / nr=0 / decimate=1 / interlaced=0 / bluray_compat=0 / constrained_intra=0 / bframes=16 / b_pyramid=2 / b_adapt=2 / b_bias=0 / direct=3 / weightb=1 / open_gop=0 / weightp=2 / keyint=240 / keyint_min=24 / scenecut=40 / intra_refresh=0 / rc_lookahead=60 / rc=crf / mbtree=1 / crf=20.0 / qcomp=0.60 / qpmin=0 / qpmax=69 / qpstep=4 / vbv_maxrate=62500 / vbv_bufsize=78125 / crf_max=0.0 / nal_hrd=none / filler=0 / ip_ratio=1.40 / aq=1:1.00
Default : Yes
Forced: No
Color range : Limited
Color primaries : BT.709
Transfer characteristics: BT.709
Matrix coefficients : BT.709

Audio #1
ID: 2
Format: DTS
Format/Info : Digital Theater Systems
Codec ID: A_DTS
Duration: 1 h 56 min
Bit rate mode : Constant
Bit rate: 768 kb/s
Channel(s): 6 channels
Channel layout: C L R Ls Rs LFE
Sampling rate : 48.0 kHz
Frame rate: 93.750 FPS (512 SPF)
Bit depth : 24 bits
Compression mode: Lossy
Stream size : 637 MiB (12%)
Title : Surround
Language: Spanish
Default : Yes
Forced: No

Audio #2
ID: 3
Format: DTS
Format/Info : Digital Theater Systems
Codec ID: A_DTS
Duration: 1 h 56 min
Bit rate mode : Constant
Bit rate: 1 509 kb/s
Channel(s): 6 channels
Channel layout: C L R Ls Rs LFE
Sampling rate : 48.0 kHz
Frame rate: 93.750 FPS (512 SPF)
Bit depth : 24 bits
Compression mode: Lossy
Stream size : 1.22 GiB (23%)
Title : Surround
Language: English
Default : No
Forced: No

Text #1
ID: 4
Format: PGS
Muxing mode : zlib
Codec ID: S_HDMV/PGS
Codec ID/Info : Picture based subtitle format used on BDs/HD-DVDs
Duration: 1 h 55 min
Bit rate: 51.4 kb/s
Count of elements : 5252
Stream size : 42.3 MiB (1%)
Language: Spanish
Default : No
Forced: No

Text #2
ID: 5
Format: PGS
Muxing mode : zlib
Codec ID: S_HDMV/PGS
Codec ID/Info : Picture based subtitle format used on BDs/HD-DVDs
Duration: 1 h 51 min
Bit rate: 581 b/s
Count of elements : 72
Stream size : 473 KiB (0%)
Language: Spanish
Default : No
Forced: No

Text #3
ID: 6
Format: PGS
Muxing mode : zlib
Codec ID: S_HDMV/PGS
Codec ID/Info : Picture based subtitle format used on BDs/HD-DVDs
Duration: 1 h 50 min
Bit rate: 69.9 kb/s
Count of elements : 5282
Stream size : 55.4 MiB (1%)
Language: English
Default : No
Forced: No

Text #4
ID: 7
Format: UTF-8
Codec ID: S_TEXT/UTF8
Codec ID/Info : UTF-8 Plain Text
Duration: 1 h 30 min
Bit rate: 0 b/s
Count of elements : 13
Stream size : 374 Bytes (0%)
Language: Spanish
Default : Yes
Forced: Yes

Text #5
ID: 8
Format: UTF-8
Codec ID: S_TEXT/UTF8
Codec ID/Info : UTF-8 Plain Text
Duration: 1 h 50 min
Bit rate: 87 b/s
Count of elements : 2622
Stream size : 70.8 KiB (0%)
Language: Spanish
Default : No
Forced: No

Menu
00:00:00.000: :Chapter 1
00:04:38.278: :Chapter 2
00:08:25.922: :Chapter 3
00:13:20.383: :Chapter 4
00:19:09.273: :Chapter 5
00:26:59.910: :Chapter 6
00:30:17.357: :Chapter 7
00:38:07.577: :Chapter 8
00:42:01.769: :Chapter 9
00:47:35.561: :Chapter 10
00:50:51.924: :Chapter 11
01:02:32.290: :Chapter 12
01:08:56.507: :Chapter 13
01:15:39.035: :Chapter 14
01:19:40.401: :Chapter 15
01:25:52.773: :Chapter 16
01:33:45.954: :Chapter 17
01:38:42.083: :Chapter 18
01:44:19.545: :Chapter 19
01:51:21.175: :Chapter 20

Download Links

CONTRASEÑA PARA DESCOMPRIMIR

APORTES NUEVOS

cinemaniahdd.com

APORTES VIEJOS

CinemaniaHD.org

COMPRA O RENUEVA TU PREMIUM DE UPLOADED DESDE EL SIGUIENTE LINK:

http://ul.to/ref/9821430

SI GUSTAS PUEDES SEGUIRNOS EN LAS REDES SOCIALES

Facebook

Twitter

Post Relacionados