Eso (1990) Unrated HDTV Full 1080p Dual Latino

NOTA:El Audio Latino fue editado para la version Unrated que es este el caso.Por lo tanto de repente pasa del latino al Ingles,para ese caso activen los subtitulos.

It es el moustruo que todo niño le teme,es un payaso diabolico.Han desaparecido algunos niños y hallados muertos.Nadie sabe quien es el asesino solo una pandilla de 7 niños lograron asesinarlo,pero no saben que cada 30 años sale para comer de nuevo y hacerse inmortal.Asi que tendrn que reencontrarse para poder matarlo definitivamente.



Titulo Original It
Año 1990
Duracion 192 Min.
Director
Reparto Richard Thomas, John Ritter, Annette OToole, Harry Anderson, Tim Curry, Jonathan Brandis, Brandon Crane, Emily Perkins, Dennis Christopher, Seth Green, Tim Reid, Richard Masur, Olivia Hussey, Adam Faraizl, Ben Heller, Marlon Taylor, Jarred Blancard, Michael Cole
Productora Richard Thomas, John Ritter, Annette OToole, Harry Anderson, Tim Curry, Jonathan Brandis, Brandon Crane, Emily Perkins, Dennis Christopher, Seth Green, Tim Reid, Richard Masur, Olivia Hussey, Adam Faraizl, Ben Heller, Marlon Taylor, Jarred Blancard, Michael Cole
Genero
Titulo original IT HD 1080p Latino Mega MKV
Audio Español Latino (AC3 2.0)-Ingles (AC3 2.0)
Calidad: HDTV 1080p Resolucion: 1920x1080 Formato: MKV
Encoder: olakhace Peso: 5.6 GB Duracion: 3:07:21
Subtitulos: Españo Latino (.srt)
  • No hay video embed

Eso (1990) Unrated HDTV Full 1080p Dual Latino[WwW.CinemaniaHDD.com].mkv
Format : Matroska
Format version : Version 4 / Version 2
File size : 5.61 GiB
Duration : 3h 7mn
Overall bit rate : 4 286 Kbps
Movie name : Eso (1990) Unrated HDTV Full 1080p Dual Latino[WwW.CinemaniaHDD.com]
Encoded date : UTC 2015-04-14 11:53:31
Writing application : mkvmerge v7.7.0 ('Six Voices') 64bit built on Feb 28 2015 23:39:33
Writing library : libebml v1.3.1 + libmatroska v1.4.2
DURATION : 03:05:21.913000000
NUMBER_OF_FRAMES : 1900
NUMBER_OF_BYTES : 65189
_STATISTICS_WRITING_APP : mkvmerge v7.7.0 ('Six Voices') 64bit built on Feb 28 2015 23:39:33
_STATISTICS_WRITING_DATE_UT : 2015-04-14 11:53:31
_STATISTICS_TAGS : BPS DURATION NUMBER_OF_FRAMES NUMBER_OF_BYTES

Video
ID : 1
Format : AVC
Format/Info : Advanced Video Codec
Format profile : High@L4.1
Format settings, CABAC : Yes
Format settings, ReFrames : 4 frames
Codec ID : V_MPEG4/ISO/AVC
Duration : 3h 7mn
Bit rate : 3 900 Kbps
Width : 1 920 pixels
Height : 1 080 pixels
Display aspect ratio : 16:9
Frame rate mode : Constant
Frame rate : 23.976 fps
Color space : YUV
Chroma subsampling : 4:2:0
Bit depth : 8 bits
Scan type : Progressive
Bits/(Pixel*Frame) : 0.078
Stream size : 4.99 GiB (89%)
Title : [WwW.CinemaniaHDD.com]
Writing library : x264 core 142 r2479 dd79a61
Encoding settings : cabac=1 / ref=1 / deblock=1:-1:-1 / analyse=0x3:0x113 / me=hex / subme=2 / psy=1 / psy_rd=1.00:0.15 / mixed_ref=0 / me_range=16 / chroma_me=1 / trellis=0 / 8x8dct=1 / cqm=0 / deadzone=21,11 / fast_pskip=1 / chroma_qp_offset=0 / threads=12 / lookahead_threads=4 / sliced_threads=0 / nr=0 / decimate=1 / interlaced=0 / bluray_compat=0 / constrained_intra=0 / bframes=3 / b_pyramid=2 / b_adapt=1 / b_bias=0 / direct=1 / weightb=1 / open_gop=0 / weightp=1 / keyint=240 / keyint_min=24 / scenecut=40 / intra_refresh=0 / rc_lookahead=10 / rc=2pass / mbtree=1 / bitrate=3900 / ratetol=1.0 / qcomp=0.60 / qpmin=0 / qpmax=69 / qpstep=4 / cplxblur=20.0 / qblur=0.5 / vbv_maxrate=62500 / vbv_bufsize=78125 / nal_hrd=none / filler=0 / ip_ratio=1.40 / aq=1:1.00
Default : Yes
Forced : No
Color primaries : BT.709
Transfer characteristics : BT.709
Matrix coefficients : BT.709
Color range : Limited
DURATION : 03:07:21.731000000
NUMBER_OF_FRAMES : 269532
NUMBER_OF_BYTES : 5480277057
_STATISTICS_WRITING_APP : mkvmerge v7.7.0 ('Six Voices') 64bit built on Feb 28 2015 23:39:33
_STATISTICS_WRITING_DATE_UT : 2015-04-14 11:53:31
_STATISTICS_TAGS : BPS DURATION NUMBER_OF_FRAMES NUMBER_OF_BYTES

Audio #1
ID : 2
Format : AC-3
Format/Info : Audio Coding 3
Mode extension : CM (complete main)
Format settings, Endianness : Big
Codec ID : A_AC3
Duration : 3h 7mn
Bit rate mode : Constant
Bit rate : 192 Kbps
Channel(s) : 2 channels
Channel positions : Front: L R
Sampling rate : 48.0 KHz
Bit depth : 16 bits
Compression mode : Lossy
Delay relative to video : -83ms
Stream size : 257 MiB (4%)
Title : Audio Latino[WwW.CinemaniaHDD.com]
Language : Latin
Default : Yes
Forced : No
DURATION : 03:07:21.856000000
NUMBER_OF_FRAMES : 351308
NUMBER_OF_BYTES : 269804544
_STATISTICS_WRITING_APP : mkvmerge v7.7.0 ('Six Voices') 64bit built on Feb 28 2015 23:39:33
_STATISTICS_WRITING_DATE_UT : 2015-04-14 11:53:31
_STATISTICS_TAGS : BPS DURATION NUMBER_OF_FRAMES NUMBER_OF_BYTES

Audio #2
ID : 3
Format : AC-3
Format/Info : Audio Coding 3
Mode extension : CM (complete main)
Format settings, Endianness : Big
Codec ID : A_AC3
Duration : 3h 7mn
Bit rate mode : Constant
Bit rate : 192 Kbps
Channel(s) : 2 channels
Channel positions : Front: L R
Sampling rate : 48.0 KHz
Bit depth : 16 bits
Compression mode : Lossy
Stream size : 257 MiB (4%)
Title : Audio Ingles[WwW.CinemaniaHDD.com]
Language : English
Default : No
Forced : No

Text #1
ID : 4
Format : UTF-8
Codec ID : S_TEXT/UTF8
Codec ID/Info : UTF-8 Plain Text
Title : [WwW.CinemaniaHDD.com]
Language : Latin
Default : Yes
Forced : No

Text #2
ID : 5
Format : UTF-8
Codec ID : S_TEXT/UTF8
Codec ID/Info : UTF-8 Plain Text
Title : Subtitulos Latino[WwW.CinemaniaHDD.com]
Language : Latin
Default : No
Forced : No

Download Links

CONTRASEÑA PARA DESCOMPRIMIR

APORTES NUEVOS

cinemaniahdd.com

APORTES VIEJOS

CinemaniaHD.org

COMPRA O RENUEVA TU PREMIUM DE UPLOADED DESDE EL SIGUIENTE LINK:

http://ul.to/ref/9821430

SI GUSTAS PUEDES SEGUIRNOS EN LAS REDES SOCIALES

Facebook

Twitter

Post Relacionados