Experimenter (2015) Full 1080p Subtitulado

En 1961, Stanley Milgram llevó a cabo una serie de experimentos sobre la obediencia en la Universidad de Yale. La investigación, planteada a raíz del juicio a Adolf Eichmann, pretendía dilucidar la relación de las personas con la autoridad. La violencia del experimento hizo que Milgram fuera tildado de sádico y de monstruo.



Titulo original Experimenter
Audio Ingles DTS 5.1 BLURAY
Calidad: Full 1080p Resolucion: 1920x1080p Formato: MKV
Encoder: Dracarys Peso: 4.60 GiB Duracion: 1h 30m
Subtitulos: Español Latino PGS - Ingles PGS
  • No hay video embed

Format                                   : Matroska
Format version                           : Version 4 / Version 2
File size                                : 4.60 GiB
Duration                                 : 1 h 38 min
Overall bit rate                         : 6 709 kb/s
Movie name                               : CinemaniaHDD.net
Encoded date                             : UTC 2018-10-11 16:29:29 / UTC 2018-10-11T00:12:47Z
Writing application                      : mkvmerge v15.0.0 ('Duel with the Devil') 64-bit
Writing library                          : libebml v1.3.5 + libmatroska v1.4.5 / Lavf57.7.2

Video
ID                                       : 1
Format                                   : AVC
Format/Info                              : Advanced Video Codec
Format profile                           : High@L4.1
Format settings                          : CABAC / 4 Ref Frames
Format settings, CABAC                   : Yes
Format settings, RefFrames               : 4 frames
Codec ID                                 : V_MPEG4/ISO/AVC
Duration                                 : 1 h 38 min
Bit rate                                 : 5 066 kb/s
Width                                    : 1 920 pixels
Height                                   : 1 080 pixels
Display aspect ratio                     : 16:9
Frame rate mode                          : Constant
Frame rate                               : 23.976 (24000/1001) FPS
Color space                              : YUV
Chroma subsampling                       : 4:2:0
Bit depth                                : 8 bits
Scan type                                : Progressive
Bits/(Pixel*Frame)                       : 0.102
Stream size                              : 3.47 GiB (76%)
Writing library                          : x264 core 148 r2708 86b7198
Encoding settings                        : cabac=1 / ref=4 / deblock=1:0:0 / analyse=0x3:0x133 / me=esa / subme=10 / psy=1 / psy_rd=1.00:0.00 / mixed_ref=1 / me_range=24 / chroma_me=1 / trellis=2 / 8x8dct=1 / cqm=0 / deadzone=21,11 / fast_pskip=1 / chroma_qp_offset=-2 / threads=34 / lookahead_threads=5 / sliced_threads=0 / nr=0 / decimate=1 / interlaced=0 / bluray_compat=0 / constrained_intra=0 / bframes=8 / b_pyramid=2 / b_adapt=2 / b_bias=0 / direct=3 / weightb=1 / open_gop=0 / weightp=2 / keyint=240 / keyint_min=24 / scenecut=40 / intra_refresh=0 / rc_lookahead=60 / rc=crf / mbtree=1 / crf=20.0 / qcomp=0.60 / qpmin=0 / qpmax=69 / qpstep=4 / vbv_maxrate=62500 / vbv_bufsize=78125 / crf_max=0.0 / nal_hrd=none / filler=0 / ip_ratio=1.40 / aq=1:1.00
Language                                 : English
Default                                  : Yes
Forced                                   : No
Color range                              : Limited
Color primaries                          : BT.709
Transfer characteristics                 : BT.709
Matrix coefficients                      : BT.709
Statistics Tags Issue                    : mkvmerge v15.0.0 ('Duel with the Devil') 64-bit 2018-10-11 16:29:29 / mkvmerge v15.0.0 ('Duel with the Devil') 64-bit 2018-10-11 16:29:29 / UTC 2018-10-11T00:12:47Z
FromStats_BitRate                        : 5118102
FromStats_Duration                       : 01:38:04.838000000
FromStats_FrameCount                     : 141095
FromStats_StreamSize                     : 3764900693

Audio
ID                                       : 2
Format                                   : DTS
Format/Info                              : Digital Theater Systems
Mode                                     : 16
Format settings, Endianness              : Big
Codec ID                                 : A_DTS
Duration                                 : 1 h 38 min
Bit rate mode                            : Constant
Bit rate                                 : 1 509 kb/s
Channel(s)                               : 6 channels
Channel positions                        : Front: L C R, Side: L R, LFE
Sampling rate                            : 48.0 kHz
Frame rate                               : 93.750 FPS (512 SPF)
Bit depth                                : 16 bits
Compression mode                         : Lossy
Stream size                              : 1.03 GiB (22%)
Language                                 : English
Default                                  : Yes
Forced                                   : No
Statistics Tags Issue                    : mkvmerge v15.0.0 ('Duel with the Devil') 64-bit 2018-10-11 16:29:29 / mkvmerge v15.0.0 ('Duel with the Devil') 64-bit 2018-10-11 16:29:29 / UTC 2018-10-11T00:12:47Z
FromStats_BitRate                        : 1508999
FromStats_Duration                       : 01:38:04.875000000
FromStats_FrameCount                     : 551707
FromStats_StreamSize                     : 1110034484

Text #1
ID                                       : 3
Format                                   : PGS
Muxing mode                              : zlib
Codec ID                                 : S_HDMV/PGS
Codec ID/Info                            : Picture based subtitle format used on BDs/HD-DVDs
Language                                 : English
Default                                  : No
Forced                                   : No
Statistics Tags Issue                    : mkvmerge v15.0.0 ('Duel with the Devil') 64-bit 2018-10-11 16:29:29 / mkvmerge v15.0.0 ('Duel with the Devil') 64-bit 2018-10-11 16:29:29 / UTC 2018-10-11T00:12:47Z
FromStats_BitRate                        : 97545
FromStats_Duration                       : 01:32:21.244000000
FromStats_FrameCount                     : 3116
FromStats_StreamSize                     : 67565089

Text #2
ID                                       : 4
Format                                   : PGS
Muxing mode                              : zlib
Codec ID                                 : S_HDMV/PGS
Codec ID/Info                            : Picture based subtitle format used on BDs/HD-DVDs
Language                                 : Spanish
Default                                  : Yes
Forced                                   : Yes
Statistics Tags Issue                    : mkvmerge v15.0.0 ('Duel with the Devil') 64-bit 2018-10-11 16:29:29 / mkvmerge v15.0.0 ('Duel with the Devil') 64-bit 2018-10-11 16:29:29 / UTC 2018-10-11T00:12:47Z
FromStats_BitRate                        : 94535
FromStats_Duration                       : 01:32:22.871000000
FromStats_FrameCount                     : 2942
FromStats_StreamSize                     : 65499759

Menu
00:00:00.000                             : :Chapter 1
00:08:28.466                             : :Chapter 2
00:18:35.197                             : :Chapter 3
00:26:20.079                             : :Chapter 4
00:32:43.879                             : :Chapter 5
00:42:01.227                             : :Chapter 6
00:48:03.589                             : :Chapter 7
00:55:49.471                             : :Chapter 8
01:03:14.666                             : :Chapter 9
01:13:47.256                             : :Chapter 10
01:26:01.448                             : :Chapter 11
01:33:14.255                             : :Chapter 12

 

Download Links

CONTRASEÑA PARA DESCOMPRIMIR

APORTES NUEVOS

cinemaniahdd.com

APORTES VIEJOS

CinemaniaHD.org

COMPRA O RENUEVA TU PREMIUM DE UPLOADED DESDE EL SIGUIENTE LINK:

http://ul.to/ref/9821430

SI GUSTAS PUEDES SEGUIRNOS EN LAS REDES SOCIALES

Facebook

Twitter

Post Relacionados