Fear the Walking Dead (2015) Primera Temporada Full 108p Latino

Fear The Walking Dead es una serie dramática, spin-off de la producción de AMC, The Walking Dead. Esta serie, ambientada en Los Ángeles, California, explora el inicio del apocalipsis zombi desde el punto de vista de una familia desestructurada.

Dicha familia está formada por una consejera de estudiantes llamada Madison Clark (Kim Dickens); su novio, Travis Manawa (Cliff Curtis), un profesor de inglés divorciado; su hija Alicia (Alycia Debnam-Carey); y su hijo de 19 años, Nick (Frank Dillane), adicto a la heroína. Ante el brote de un misterioso virus y la aparición de caminantes infectados, es necesario buscar la supervivencia. Así, cuando la sociedad empieza a desmoronarse, esta familia deberá adaptarse para sobrevivir o aferrarse a sus más grandes defectos para sobrevivir al inevitable colapso de la civilización.

Esta serie no está basada en la novela gráfica de ‘The Walking Dead’ y cuenta con una historia independiente incluso a la serie de la televisión de la que deriva. La producción está a cargo de Robert Kirkman, Gale Anne Hurd y David Alpert.

 
Latino: E-AC3 2.0 Amazon  –  Ingles: DTS 5-1 Bluray
 
Creditos audio latino: Electroman



Titulo original Fear the Walking Dead
Audio Se especifica abajo de la Sinopsis
Calidad: Full 1080p Resolucion: 1920x1080p Formato: MKV
Encoder: Dracarys Peso: 2.00 A 5.00 GiB X Capitulo Duracion: 0h 43m
Subtitulos: Español Latino SRT
  • No hay video embed

Format                                   : Matroska
Format version                           : Version 4 / Version 2
File size                                : 2.96 GiB
Duration                                 : 48 min 31 s
Overall bit rate                         : 8 732 kb/s
Movie name                               : CinemaniaHDD.net
Encoded date                             : UTC 2018-10-31 01:39:01 / UTC 2018-10-25T07:13:57Z
Writing application                      : mkvmerge v15.0.0 ('Duel with the Devil') 64-bit
Writing library                          : libebml v1.3.5 + libmatroska v1.4.5 / Lavf57.7.2

Video
ID                                       : 1
Format                                   : AVC
Format/Info                              : Advanced Video Codec
Format profile                           : High@L4.1
Format settings                          : CABAC / 4 Ref Frames
Format settings, CABAC                   : Yes
Format settings, RefFrames               : 4 frames
Codec ID                                 : V_MPEG4/ISO/AVC
Duration                                 : 48 min 31 s
Bit rate                                 : 6 825 kb/s
Width                                    : 1 920 pixels
Height                                   : 1 080 pixels
Display aspect ratio                     : 16:9
Frame rate mode                          : Constant
Frame rate                               : 23.976 (24000/1001) FPS
Color space                              : YUV
Chroma subsampling                       : 4:2:0
Bit depth                                : 8 bits
Scan type                                : Progressive
Bits/(Pixel*Frame)                       : 0.137
Stream size                              : 2.31 GiB (78%)
Writing library                          : x264 core 148 r2708 86b7198
Encoding settings                        : cabac=1 / ref=4 / deblock=1:0:0 / analyse=0x3:0x133 / me=esa / subme=10 / psy=1 / psy_rd=1.00:0.00 / mixed_ref=1 / me_range=24 / chroma_me=1 / trellis=2 / 8x8dct=1 / cqm=0 / deadzone=21,11 / fast_pskip=1 / chroma_qp_offset=-2 / threads=34 / lookahead_threads=5 / sliced_threads=0 / nr=0 / decimate=1 / interlaced=0 / bluray_compat=0 / constrained_intra=0 / bframes=8 / b_pyramid=2 / b_adapt=2 / b_bias=0 / direct=3 / weightb=1 / open_gop=0 / weightp=2 / keyint=240 / keyint_min=24 / scenecut=40 / intra_refresh=0 / rc_lookahead=60 / rc=crf / mbtree=1 / crf=20.0 / qcomp=0.60 / qpmin=0 / qpmax=69 / qpstep=4 / vbv_maxrate=62500 / vbv_bufsize=78125 / crf_max=0.0 / nal_hrd=none / filler=0 / ip_ratio=1.40 / aq=1:1.00
Language                                 : English
Default                                  : Yes
Forced                                   : No
Color range                              : Limited
Color primaries                          : BT.709
Transfer characteristics                 : BT.709
Matrix coefficients                      : BT.709
Statistics Tags Issue                    : mkvmerge v15.0.0 ('Duel with the Devil') 64-bit 2018-10-31 01:39:01 / mkvmerge v15.0.0 ('Duel with the Devil') 64-bit 2018-10-31 01:39:01 / UTC 2018-10-25T07:13:57Z
FromStats_BitRate                        : 6996319
FromStats_Duration                       : 00:48:31.284000000
FromStats_FrameCount                     : 69801
FromStats_StreamSize                     : 2546034098

Audio #1
ID                                       : 2
Format                                   : E-AC-3
Format/Info                              : Enhanced Audio Coding 3
Format settings, Endianness              : Big
Codec ID                                 : A_EAC3
Duration                                 : 48 min 31 s
Bit rate mode                            : Constant
Bit rate                                 : 224 kb/s
Channel(s)                               : 2 channels
Channel positions                        : Front: L R
Sampling rate                            : 48.0 kHz
Frame rate                               : 187.500 FPS (256 SPF)
Compression mode                         : Lossy
Delay relative to video                  : 5 s 800 ms
Stream size                              : 77.7 MiB (3%)
Language                                 : Spanish
Service kind                             : Complete Main
Default                                  : Yes
Forced                                   : No
Statistics Tags Issue                    : mkvmerge v15.0.0 ('Duel with the Devil') 64-bit 2018-10-31 01:39:01 / mkvmerge v15.0.0 ('Duel with the Devil') 64-bit 2018-10-31 01:39:01 / UTC 2018-10-25T07:13:57Z
FromStats_BitRate                        : 224000
FromStats_Duration                       : 00:48:25.376000000
FromStats_FrameCount                     : 90793
FromStats_StreamSize                     : 81350528

Audio #2
ID                                       : 3
Format                                   : DTS
Format/Info                              : Digital Theater Systems
Mode                                     : 16
Format settings, Endianness              : Big
Codec ID                                 : A_DTS
Duration                                 : 48 min 31 s
Bit rate mode                            : Constant
Bit rate                                 : 1 509 kb/s
Channel(s)                               : 6 channels
Channel positions                        : Front: L C R, Side: L R, LFE
Sampling rate                            : 48.0 kHz
Frame rate                               : 93.750 FPS (512 SPF)
Bit depth                                : 16 bits
Compression mode                         : Lossy
Stream size                              : 524 MiB (17%)
Language                                 : English
Default                                  : No
Forced                                   : No
Statistics Tags Issue                    : mkvmerge v15.0.0 ('Duel with the Devil') 64-bit 2018-10-31 01:39:01 / mkvmerge v15.0.0 ('Duel with the Devil') 64-bit 2018-10-31 01:39:01 / UTC 2018-10-25T07:13:57Z
FromStats_BitRate                        : 1508999
FromStats_Duration                       : 00:48:31.318000000
FromStats_FrameCount                     : 272936
FromStats_StreamSize                     : 549147232

Text
ID                                       : 4
Format                                   : UTF-8
Codec ID                                 : S_TEXT/UTF8
Codec ID/Info                            : UTF-8 Plain Text
Language                                 : Spanish
Default                                  : No
Forced                                   : No
Statistics Tags Issue                    : mkvmerge v15.0.0 ('Duel with the Devil') 64-bit 2018-10-31 01:39:01 / mkvmerge v15.0.0 ('Duel with the Devil') 64-bit 2018-10-31 01:39:01 / UTC 2018-10-25T07:13:57Z
FromStats_BitRate                        : 41
FromStats_Duration                       : 00:46:24.126000000
FromStats_FrameCount                     : 492
FromStats_StreamSize                     : 14533

Menu
00:00:00.000                             : :Chapter 1
00:09:58.056                             : :Chapter 2
00:15:44.235                             : :Chapter 3
00:23:53.515                             : :Chapter 4
00:32:34.327                             : :Chapter 5
00:38:40.568                             : :Chapter 6

 

Download Links

CONTRASEÑA PARA DESCOMPRIMIR

APORTES NUEVOS

cinemaniahdd.com

APORTES VIEJOS

CinemaniaHD.org

COMPRA O RENUEVA TU PREMIUM DE UPLOADED DESDE EL SIGUIENTE LINK:

http://ul.to/ref/9821430

SI GUSTAS PUEDES SEGUIRNOS EN LAS REDES SOCIALES

Facebook

Twitter

Post Relacionados