Feral (2017) Full 1080p Subtitulado

Un animal salvaje ataca a seis estudiantes de medicina en una caminata de fin de semana en el bosque. Uno por uno, se infectan con una “enfermedad salvaje”, convirtiéndolos en criaturas rabiosas y sanguinarias, y las vacaciones se convierten en una pesadilla mientras luchan por sobrevivir el uno al otro.



Titulo Original Feral
Año 2018-05-25
Duracion 1h 30m
Director
Reparto , , , , , , ,
Productora
Genero
Titulo original Feral
Audio Ingles DTS 5.1 BLURAY
Calidad: Full 1080p Resolucion: 1920x1080p Formato: MKV
Encoder: Dracarys Peso: 3.06 GiB Duracion: 1h 30m
Subtitulos: Español Latino PGS - Ingles PGS
  • No hay video embed

Format                                   : Matroska
Format version                           : Version 4 / Version 2
File size                                : 3.06 GiB
Duration                                 : 1 h 31 min
Overall bit rate                         : 4 783 kb/s
Movie name                               : CinemaniaHDD.net
Encoded date                             : UTC 2018-10-10 19:10:20 / UTC 2018-10-02T13:03:15Z
Writing application                      : mkvmerge v15.0.0 ('Duel with the Devil') 64-bit
Writing library                          : libebml v1.3.5 + libmatroska v1.4.5 / Lavf57.7.2

Video
ID                                       : 1
Format                                   : AVC
Format/Info                              : Advanced Video Codec
Format profile                           : High@L4.1
Format settings                          : CABAC / 4 Ref Frames
Format settings, CABAC                   : Yes
Format settings, RefFrames               : 4 frames
Codec ID                                 : V_MPEG4/ISO/AVC
Duration                                 : 1 h 31 min
Bit rate                                 : 3 178 kb/s
Width                                    : 1 920 pixels
Height                                   : 1 080 pixels
Display aspect ratio                     : 16:9
Frame rate mode                          : Constant
Frame rate                               : 23.976 (24000/1001) FPS
Color space                              : YUV
Chroma subsampling                       : 4:2:0
Bit depth                                : 8 bits
Scan type                                : Progressive
Bits/(Pixel*Frame)                       : 0.064
Stream size                              : 2.03 GiB (66%)
Writing library                          : x264 core 148 r2708 86b7198
Encoding settings                        : cabac=1 / ref=4 / deblock=1:0:0 / analyse=0x3:0x133 / me=esa / subme=10 / psy=1 / psy_rd=1.00:0.00 / mixed_ref=1 / me_range=24 / chroma_me=1 / trellis=2 / 8x8dct=1 / cqm=0 / deadzone=21,11 / fast_pskip=1 / chroma_qp_offset=-2 / threads=34 / lookahead_threads=5 / sliced_threads=0 / nr=0 / decimate=1 / interlaced=0 / bluray_compat=0 / constrained_intra=0 / bframes=8 / b_pyramid=2 / b_adapt=2 / b_bias=0 / direct=3 / weightb=1 / open_gop=0 / weightp=2 / keyint=240 / keyint_min=24 / scenecut=40 / intra_refresh=0 / rc_lookahead=60 / rc=crf / mbtree=1 / crf=20.0 / qcomp=0.60 / qpmin=0 / qpmax=69 / qpstep=4 / vbv_maxrate=62500 / vbv_bufsize=78125 / crf_max=0.0 / nal_hrd=none / filler=0 / ip_ratio=1.40 / aq=1:1.00
Language                                 : English
Default                                  : Yes
Forced                                   : No
Color range                              : Limited
Color primaries                          : BT.709
Transfer characteristics                 : BT.709
Matrix coefficients                      : BT.709
Statistics Tags Issue                    : mkvmerge v15.0.0 ('Duel with the Devil') 64-bit 2018-10-10 19:10:20 / mkvmerge v15.0.0 ('Duel with the Devil') 64-bit 2018-10-10 19:10:20 / UTC 2018-10-02T13:03:15Z
FromStats_BitRate                        : 3246667
FromStats_Duration                       : 01:31:39.202000000
FromStats_FrameCount                     : 131849
FromStats_StreamSize                     : 2231759928

Audio
ID                                       : 2
Format                                   : DTS
Format/Info                              : Digital Theater Systems
Mode                                     : 16
Format settings, Endianness              : Big
Codec ID                                 : A_DTS
Duration                                 : 1 h 31 min
Bit rate mode                            : Constant
Bit rate                                 : 1 509 kb/s
Channel(s)                               : 6 channels
Channel positions                        : Front: L C R, Side: L R, LFE
Sampling rate                            : 48.0 kHz
Frame rate                               : 93.750 FPS (512 SPF)
Bit depth                                : 24 bits
Compression mode                         : Lossy
Stream size                              : 989 MiB (32%)
Language                                 : English
Default                                  : Yes
Forced                                   : No
Statistics Tags Issue                    : mkvmerge v15.0.0 ('Duel with the Devil') 64-bit 2018-10-10 19:10:20 / mkvmerge v15.0.0 ('Duel with the Devil') 64-bit 2018-10-10 19:10:20 / UTC 2018-10-02T13:03:15Z
FromStats_BitRate                        : 1509000
FromStats_Duration                       : 01:31:39.200000000
FromStats_FrameCount                     : 515550
FromStats_StreamSize                     : 1037286600

Text #1
ID                                       : 3
Format                                   : PGS
Muxing mode                              : zlib
Codec ID                                 : S_HDMV/PGS
Codec ID/Info                            : Picture based subtitle format used on BDs/HD-DVDs
Language                                 : English
Default                                  : No
Forced                                   : No
Statistics Tags Issue                    : mkvmerge v15.0.0 ('Duel with the Devil') 64-bit 2018-10-10 19:10:20 / mkvmerge v15.0.0 ('Duel with the Devil') 64-bit 2018-10-10 19:10:20 / UTC 2018-10-02T13:03:15Z
FromStats_BitRate                        : 23419
FromStats_Duration                       : 01:28:28.553000000
FromStats_FrameCount                     : 1861
FromStats_StreamSize                     : 15540748

Text #2
ID                                       : 4
Format                                   : PGS
Muxing mode                              : zlib
Codec ID                                 : S_HDMV/PGS
Codec ID/Info                            : Picture based subtitle format used on BDs/HD-DVDs
Language                                 : Spanish
Default                                  : Yes
Forced                                   : Yes
Statistics Tags Issue                    : mkvmerge v15.0.0 ('Duel with the Devil') 64-bit 2018-10-10 19:10:20 / mkvmerge v15.0.0 ('Duel with the Devil') 64-bit 2018-10-10 19:10:20 / UTC 2018-10-02T13:03:15Z
FromStats_BitRate                        : 20789
FromStats_Duration                       : 01:25:50.687000000
FromStats_FrameCount                     : 1532
FromStats_StreamSize                     : 13385192

Menu
00:00:00.000                             : :Chapter 1
00:08:32.721                             : :Chapter 2
00:15:52.076                             : :Chapter 3
00:21:36.045                             : :Chapter 4
00:27:48.917                             : :Chapter 5
00:34:29.568                             : :Chapter 6
00:41:41.416                             : :Chapter 7
00:48:01.629                             : :Chapter 8
00:55:09.264                             : :Chapter 9
01:02:57.440                             : :Chapter 10
01:12:19.919                             : :Chapter 11
01:22:21.353                             : :Chapter 12

 

Download Links

CONTRASEÑA PARA DESCOMPRIMIR

APORTES NUEVOS

cinemaniahdd.com

APORTES VIEJOS

CinemaniaHD.org

COMPRA O RENUEVA TU PREMIUM DE UPLOADED DESDE EL SIGUIENTE LINK:

http://ul.to/ref/9821430

SI GUSTAS PUEDES SEGUIRNOS EN LAS REDES SOCIALES

Facebook

Twitter

Post Relacionados