Galveston (2018) Web-DL 1080p Subtitulado

Descargar Galveston (2018) Web-DL 1080p Subtitulado, mega, google drive. Roy se ha salvado de la trampa que le ha tendido su jefe, el capo de una banda criminal. En plena huida, rescatará a Raquel, una prostituta con la que viajará hasta Galveston, Texas, donde solo se tendrán el uno al otro mientras se ven acechados por sus perseguidores y por su propio pasado. La heroína de Malditos bastardos, Mélanie Laurent, adapta una novela del creador de True Detective, Nic Pizzolatto.



Titulo Original Galveston
Año 2018-10-10
Duracion 1h 34m
Director
Reparto , , , , , , , , , ,
Productora
Genero
Titulo original Galveston
Audio Ingles AC3 5.1 iTunes
Calidad: WEBDL Resolucion: 1920x800p Formato: MKV
Encoder: FGT Peso: 3.24 GiB Duracion: 1h 34m
Subtitulos: Español Latino SRT - Ingles SRT
  • No hay video embed

Galveston (2018) Web-DL 1080p Subtitulado.mkv
Format: Matroska
Format version: Version 4 / Version 2
File size : 3.24 GiB
Duration: 1 h 33 min
Overall bit rate: 4 967 kb/s
Movie name: CinemaniaHDD.Net
Encoded date: UTC 2018-10-25 01:28:21
Writing application : mkvmerge v25.0.0 ('Prog Noir') 64-bit
Writing library : libebml v1.3.6 + libmatroska v1.4.9
Cover : Yes
Attachments : cover_land.jpg / small_cover.jpg / small_cover_land.jpg / cover.jpg

Video
ID: 1
Format: AVC
Format/Info : Advanced Video Codec
Format profile: High@L4
Format settings : CABAC / 5 Ref Frames
Format settings, CABAC: Yes
Format settings, RefFrames: 5 frames
Codec ID: V_MPEG4/ISO/AVC
Duration: 1 h 33 min
Bit rate: 4 581 kb/s
Width : 1 920 pixels
Height: 800 pixels
Display aspect ratio: 2.40:1
Frame rate mode : Constant
Frame rate: 23.976 (23976/1000) FPS
Color space : YUV
Chroma subsampling: 4:2:0
Bit depth : 8 bits
Scan type : Progressive
Bits/(Pixel*Frame): 0.124
Stream size : 2.99 GiB (92%)
Title : HD1080p [Web-DL]
Language: English
Default : Yes
Forced: No
Color range : Limited
Color primaries : BT.709
Transfer characteristics: BT.709
Matrix coefficients : BT.709

Audio
ID: 2
Format: AC-3
Format/Info : Audio Coding 3
Format settings, Endianness : Big
Codec ID: A_AC3
Duration: 1 h 33 min
Bit rate mode : Constant
Bit rate: 384 kb/s
Channel(s): 6 channels
Channel positions : Front: L C R, Side: L R, LFE
Sampling rate : 48.0 kHz
Frame rate: 31.250 FPS (1536 SPF)
Bit depth : 16 bits
Compression mode: Lossy
Delay relative to video : -42 ms
Stream size : 256 MiB (8%)
Title : AC3_5.1_Web-DL_Eng
Language: English
Service kind: Complete Main
Default : Yes
Forced: No

Text #1
ID: 3
Format: UTF-8
Codec ID: S_TEXT/UTF8
Codec ID/Info : UTF-8 Plain Text
Duration: 1 h 25 min
Bit rate: 36 b/s
Count of elements : 732
Stream size : 22.7 KiB (0%)
Title : Sub_Esp
Language: Spanish
Default : Yes
Forced: Yes

Text #2
ID: 4
Format: UTF-8
Codec ID: S_TEXT/UTF8
Codec ID/Info : UTF-8 Plain Text
Duration: 1 h 28 min
Bit rate: 38 b/s
Count of elements : 833
Stream size : 25.3 KiB (0%)
Title : Sub_Eng
Language: English
Default : No
Forced: No

Menu
00:00:00.000: en:1
00:10:31.172: en:2
00:20:36.485: en:3
00:27:37.572: en:4
00:40:06.529: en:5
00:50:32.404: en:6
01:02:35.919: en:7
01:08:36.988: en:8
01:19:32.601: en:9
01:27:28.868: en:10

Download Links

CONTRASEÑA PARA DESCOMPRIMIR

APORTES NUEVOS

cinemaniahdd.com

APORTES VIEJOS

CinemaniaHD.org

COMPRA O RENUEVA TU PREMIUM DE UPLOADED DESDE EL SIGUIENTE LINK:

http://ul.to/ref/9821430

SI GUSTAS PUEDES SEGUIRNOS EN LAS REDES SOCIALES

Facebook

Twitter

Post Relacionados