Great Migrations (2010) Full 1080p Latino [Documental]

Great Migrations es una miniserie de televisión de documentales sobre la naturaleza de siete episodios que se transmite en el National Geographic Channel, que presenta las grandes migraciones de animales en todo el mundo. El programa de siete partes es el evento de programación más grande en los diez años de historia del canal y es parte de la mayor iniciativa multiplataforma desde la fundación de la National Geographic Society. Se filmó en HD y se estrenó el 7 de noviembre de 2010 con una cobertura complementaria en la revista National Geographic y un libro oficial complementario.



Titulo Original Great Migrations
Año 2010-11-07
Duracion 0h 45m
Director
Reparto , , , ,
Productora
Genero
Titulo original Great Migrations
Audio Español Latino AC3 5.1 BLURAY
Calidad: Full 1080p Resolucion: 1920x1080p Formato: MKV
Encoder: Dracarys Peso: 4.78 GiB X Capitulo - 6 Total Duracion: 0h 45m
Subtitulos: No
  • No hay video embed

Format                                   : Matroska
Format version                           : Version 4 / Version 2
File size                                : 4.78 GiB
Duration                                 : 50 min 1 s
Overall bit rate                         : 13.7 Mb/s
Movie name                               : CinemaniaHDD.net
Encoded date                             : UTC 2018-10-10 17:39:23 / UTC 2018-10-07T08:58:16Z
Writing application                      : mkvmerge v15.0.0 ('Duel with the Devil') 64-bit
Writing library                          : libebml v1.3.5 + libmatroska v1.4.5 / Lavf57.7.2

Video
ID                                       : 1
Format                                   : AVC
Format/Info                              : Advanced Video Codec
Format profile                           : High@L4.1
Format settings                          : CABAC / 4 Ref Frames
Format settings, CABAC                   : Yes
Format settings, RefFrames               : 4 frames
Codec ID                                 : V_MPEG4/ISO/AVC
Duration                                 : 50 min 1 s
Bit rate                                 : 13.0 Mb/s
Width                                    : 1 920 pixels
Height                                   : 1 080 pixels
Display aspect ratio                     : 16:9
Frame rate mode                          : Constant
Frame rate                               : 29.970 (30000/1001) FPS
Color space                              : YUV
Chroma subsampling                       : 4:2:0
Bit depth                                : 8 bits
Scan type                                : Progressive
Bits/(Pixel*Frame)                       : 0.209
Stream size                              : 4.53 GiB (95%)
Writing library                          : x264 core 148 r2708 86b7198
Encoding settings                        : cabac=1 / ref=4 / deblock=1:0:0 / analyse=0x3:0x133 / me=esa / subme=10 / psy=1 / psy_rd=1.00:0.00 / mixed_ref=1 / me_range=24 / chroma_me=1 / trellis=2 / 8x8dct=1 / cqm=0 / deadzone=21,11 / fast_pskip=1 / chroma_qp_offset=-2 / threads=34 / lookahead_threads=5 / sliced_threads=0 / nr=0 / decimate=1 / interlaced=0 / bluray_compat=0 / constrained_intra=0 / bframes=8 / b_pyramid=2 / b_adapt=2 / b_bias=0 / direct=3 / weightb=1 / open_gop=0 / weightp=2 / keyint=300 / keyint_min=30 / scenecut=40 / intra_refresh=0 / rc_lookahead=60 / rc=crf / mbtree=1 / crf=20.0 / qcomp=0.60 / qpmin=0 / qpmax=69 / qpstep=4 / vbv_maxrate=62500 / vbv_bufsize=78125 / crf_max=0.0 / nal_hrd=none / filler=0 / ip_ratio=1.40 / aq=1:1.00
Language                                 : English
Default                                  : Yes
Forced                                   : No
Color range                              : Limited
Color primaries                          : BT.709
Transfer characteristics                 : BT.709
Matrix coefficients                      : BT.709
Statistics Tags Issue                    : mkvmerge v15.0.0 ('Duel with the Devil') 64-bit 2018-10-10 17:39:23 / mkvmerge v15.0.0 ('Duel with the Devil') 64-bit 2018-10-10 17:39:23 / UTC 2018-10-07T08:58:16Z
FromStats_BitRate                        : 13241927
FromStats_Duration                       : 00:50:01.064000000
FromStats_FrameCount                     : 89942
FromStats_StreamSize                     : 4967483867

Audio
ID                                       : 2
Format                                   : AC-3
Format/Info                              : Audio Coding 3
Format settings, Endianness              : Big
Codec ID                                 : A_AC3
Duration                                 : 50 min 1 s
Bit rate mode                            : Constant
Bit rate                                 : 448 kb/s
Channel(s)                               : 6 channels
Channel positions                        : Front: L C R, Side: L R, LFE
Sampling rate                            : 48.0 kHz
Frame rate                               : 31.250 FPS (1536 SPF)
Bit depth                                : 16 bits
Compression mode                         : Lossy
Stream size                              : 160 MiB (3%)
Language                                 : Spanish
Service kind                             : Complete Main
Default                                  : Yes
Forced                                   : No
Statistics Tags Issue                    : mkvmerge v15.0.0 ('Duel with the Devil') 64-bit 2018-10-10 17:39:23 / mkvmerge v15.0.0 ('Duel with the Devil') 64-bit 2018-10-10 17:39:23 / UTC 2018-10-07T08:58:16Z
FromStats_BitRate                        : 448000
FromStats_Duration                       : 00:50:00.736000000
FromStats_FrameCount                     : 93773
FromStats_StreamSize                     : 168041216

Menu
00:00:00.100                             : :Chapter 1
00:01:22.215                             : :Chapter 2
00:07:53.106                             : :Chapter 3
00:14:00.173                             : :Chapter 4
00:21:20.412                             : :Chapter 5
00:27:41.660                             : :Chapter 6
00:32:43.795                             : :Chapter 7
00:38:52.363                             : :Chapter 8
00:43:08.920                             : :Chapter 9
00:46:21.746                             : :Chapter 10
00:48:11.555                             : :Chapter 11
00:49:44.515                             : :Chapter 12

 

Download Links

CONTRASEÑA PARA DESCOMPRIMIR

APORTES NUEVOS

cinemaniahdd.com

APORTES VIEJOS

CinemaniaHD.org

COMPRA O RENUEVA TU PREMIUM DE UPLOADED DESDE EL SIGUIENTE LINK:

http://ul.to/ref/9821430

SI GUSTAS PUEDES SEGUIRNOS EN LAS REDES SOCIALES

Facebook

Twitter

Post Relacionados