Héctor El Father: Conocerás la verdad (2018) WEB-DL 1080p Latino

La historia de transformación de Héctor “El Father” luego de alcanzar la cima del éxito.



Titulo Original Héctor El Father: Conocerás la verdad
Año 2018-03-22
Duracion 1h 30m
Director
Reparto , , , , , ,
Productora
Genero
Titulo original Héctor El Father: Conocerás la verdad
Audio Español Latino AC3 5.1 iTunes
Calidad: WEBDL Resolucion: 1920x768p Formato: MKV
Encoder: Dracarys Peso: 3.13 GiB Duracion: 1h 30m
Subtitulos: No
  • No hay video embed

Format                                 : Matroska
Format version                         : Version 4 / Version 2
File size                              : 3.13 GiB
Duration                               : 1 h 30 min
Overall bit rate                       : 4 943 kb/s
Movie name                             : CinemaniaHDD.net
Encoded date                           : UTC 2018-10-10 02:38:38
Writing application                    : mkvmerge v15.0.0 ('Duel with the Devil') 64-bit
Writing library                        : libebml v1.3.5 + libmatroska v1.4.5

Video
ID                                     : 1
Format                                 : AVC
Format/Info                            : Advanced Video Codec
Format profile                         : High@L4
Format settings                        : CABAC / 5 Ref Frames
Format settings, CABAC                 : Yes
Format settings, RefFrames             : 5 frames
Codec ID                               : V_MPEG4/ISO/AVC
Duration                               : 1 h 30 min
Bit rate                               : 4 557 kb/s
Width                                  : 1 920 pixels
Height                                 : 768 pixels
Display aspect ratio                   : 2.500
Frame rate mode                        : Constant
Frame rate                             : 23.976 (24000/1001) FPS
Color space                            : YUV
Chroma subsampling                     : 4:2:0
Bit depth                              : 8 bits
Scan type                              : Progressive
Bits/(Pixel*Frame)                     : 0.129
Stream size                            : 2.89 GiB (92%)
Title                                  : Héctor El Father: Conocerás la verdad
Language                               : Spanish
Default                                : Yes
Forced                                 : No
Color range                            : Limited
Color primaries                        : BT.709
Transfer characteristics               : BT.709
Matrix coefficients                    : BT.709

Audio
ID                                     : 2
Format                                 : AC-3
Format/Info                            : Audio Coding 3
Format settings, Endianness            : Big
Codec ID                               : A_AC3
Duration                               : 1 h 30 min
Bit rate mode                          : Constant
Bit rate                               : 384 kb/s
Channel(s)                             : 6 channels
Channel positions                      : Front: L C R, Side: L R, LFE
Sampling rate                          : 48.0 kHz
Frame rate                             : 31.250 FPS (1536 SPF)
Bit depth                              : 16 bits
Compression mode                       : Lossy
Stream size                            : 249 MiB (8%)
Language                               : Spanish
Service kind                           : Complete Main
Default                                : Yes
Forced                                 : No

Menu
00:00:00.000                           : en:1
00:15:00.000                           : en:2
00:30:00.000                           : en:3
00:45:00.000                           : en:4
01:00:00.000                           : en:5
01:15:00.000                           : en:6

 

Download Links

CONTRASEÑA PARA DESCOMPRIMIR

APORTES NUEVOS

cinemaniahdd.com

APORTES VIEJOS

CinemaniaHD.org

COMPRA O RENUEVA TU PREMIUM DE UPLOADED DESDE EL SIGUIENTE LINK:

http://ul.to/ref/9821430

SI GUSTAS PUEDES SEGUIRNOS EN LAS REDES SOCIALES

Facebook

Twitter

Post Relacionados