House M. D. (2004-2005) Primera Temporada Full 1080p Latino

Serie de TV de 177 episodios (2004-2012). Gregory House, el mejor médico del hospital, es un hombre antipático que está especializado en el diagnóstico de enfermedades. Su carácter extravagante, su rebeldía y su honradez con los pacientes y su equipo lo convierten en una persona única. Trata de evitar la relación con los pacientes, porque lo que le interesa por encima de todo es la investigación de las enfermedades. Es además adicto a los calmantes y a las series de hospitales.



Titulo Original House
Año 2004-11-16
Duracion 0h 44m
Director
Reparto , , , , , , ,
Productora
Genero
Titulo original House
Audio Español Latino AC3 2.0 Netflix - Ingles DTS 5.1 BURAY
Calidad: Full 1080p Resolucion: 1920x1080p Formato: MKV
Encoder: Dracarys Peso: De 1.50 A 4.50 GiB X Capitulo Duracion: 0h 44m
Subtitulos: Español PGS - Ingles PGS
  • No hay video embed

Format                                   : Matroska
Format version                           : Version 4 / Version 2
File size                                : 3.37 GiB
Duration                                 : 44 min 5 s
Overall bit rate                         : 10.9 Mb/s
Encoded date                             : UTC 2018-10-14 02:57:56 / UTC 2018-10-12T04:28:34Z
Writing application                      : mkvmerge v15.0.0 ('Duel with the Devil') 64-bit
Writing library                          : libebml v1.3.5 + libmatroska v1.4.5 / Lavf57.7.2

Video
ID                                       : 1
Format                                   : AVC
Format/Info                              : Advanced Video Codec
Format profile                           : High@L4.1
Format settings                          : CABAC / 4 Ref Frames
Format settings, CABAC                   : Yes
Format settings, RefFrames               : 4 frames
Codec ID                                 : V_MPEG4/ISO/AVC
Duration                                 : 44 min 5 s
Bit rate                                 : 9 762 kb/s
Width                                    : 1 920 pixels
Height                                   : 1 080 pixels
Display aspect ratio                     : 16:9
Frame rate mode                          : Constant
Frame rate                               : 23.976 (24000/1001) FPS
Color space                              : YUV
Chroma subsampling                       : 4:2:0
Bit depth                                : 8 bits
Scan type                                : Progressive
Bits/(Pixel*Frame)                       : 0.196
Stream size                              : 3.01 GiB (89%)
Writing library                          : x264 core 148 r2708 86b7198
Encoding settings                        : cabac=1 / ref=4 / deblock=1:0:0 / analyse=0x3:0x133 / me=esa / subme=10 / psy=1 / psy_rd=1.00:0.00 / mixed_ref=1 / me_range=24 / chroma_me=1 / trellis=2 / 8x8dct=1 / cqm=0 / deadzone=21,11 / fast_pskip=1 / chroma_qp_offset=-2 / threads=34 / lookahead_threads=5 / sliced_threads=0 / nr=0 / decimate=1 / interlaced=0 / bluray_compat=0 / constrained_intra=0 / bframes=8 / b_pyramid=2 / b_adapt=2 / b_bias=0 / direct=3 / weightb=1 / open_gop=0 / weightp=2 / keyint=240 / keyint_min=24 / scenecut=40 / intra_refresh=0 / rc_lookahead=60 / rc=crf / mbtree=1 / crf=20.0 / qcomp=0.60 / qpmin=0 / qpmax=69 / qpstep=4 / vbv_maxrate=62500 / vbv_bufsize=78125 / crf_max=0.0 / nal_hrd=none / filler=0 / ip_ratio=1.40 / aq=1:1.00
Default                                  : Yes
Forced                                   : No
Color range                              : Limited
Color primaries                          : BT.709
Transfer characteristics                 : BT.709
Matrix coefficients                      : BT.709
Statistics Tags Issue                    : mkvmerge v15.0.0 ('Duel with the Devil') 64-bit 2018-10-14 02:57:56 / mkvmerge v15.0.0 ('Duel with the Devil') 64-bit 2018-10-14 02:57:56 / UTC 2018-10-12T04:28:34Z
FromStats_BitRate                        : 9928728
FromStats_Duration                       : 00:44:05.643000000
FromStats_FrameCount                     : 63432
FromStats_StreamSize                     : 3283483826

Audio #1
ID                                       : 2
Format                                   : AC-3
Format/Info                              : Audio Coding 3
Format settings, Endianness              : Big
Codec ID                                 : A_AC3
Duration                                 : 44 min 5 s
Bit rate mode                            : Constant
Bit rate                                 : 192 kb/s
Channel(s)                               : 2 channels
Channel positions                        : Front: L R
Sampling rate                            : 48.0 kHz
Frame rate                               : 31.250 FPS (1536 SPF)
Bit depth                                : 16 bits
Compression mode                         : Lossy
Stream size                              : 60.6 MiB (2%)
Language                                 : Spanish
Service kind                             : Complete Main
Default                                  : Yes
Forced                                   : No
Statistics Tags Issue                    : mkvmerge v15.0.0 ('Duel with the Devil') 64-bit 2018-10-14 02:57:56 / mkvmerge v15.0.0 ('Duel with the Devil') 64-bit 2018-10-14 02:57:56 / UTC 2018-10-12T04:28:34Z
FromStats_BitRate                        : 192000
FromStats_Duration                       : 00:44:05.664000000
FromStats_FrameCount                     : 82677
FromStats_StreamSize                     : 63495936

Audio #2
ID                                       : 3
Format                                   : DTS
Format/Info                              : Digital Theater Systems
Mode                                     : 16
Format settings, Endianness              : Big
Codec ID                                 : A_DTS
Duration                                 : 44 min 5 s
Bit rate mode                            : Constant
Bit rate                                 : 768 kb/s
Channel(s)                               : 6 channels
Channel positions                        : Front: L C R, Side: L R, LFE
Sampling rate                            : 48.0 kHz
Frame rate                               : 93.750 FPS (512 SPF)
Bit depth                                : 16 bits
Compression mode                         : Lossy
Stream size                              : 242 MiB (7%)
Title                                    : Surround
Language                                 : English
Default                                  : No
Forced                                   : No
Statistics Tags Issue                    : mkvmerge v15.0.0 ('Duel with the Devil') 64-bit 2018-10-14 02:57:56 / mkvmerge v15.0.0 ('Duel with the Devil') 64-bit 2018-10-14 02:57:56 / UTC 2018-10-12T04:28:34Z
FromStats_BitRate                        : 767999
FromStats_Duration                       : 00:44:05.643000000
FromStats_FrameCount                     : 248029
FromStats_StreamSize                     : 253981696

Text #1
ID                                       : 4
Format                                   : PGS
Muxing mode                              : zlib
Codec ID                                 : S_HDMV/PGS
Codec ID/Info                            : Picture based subtitle format used on BDs/HD-DVDs
Language                                 : English
Default                                  : No
Forced                                   : No
Statistics Tags Issue                    : mkvmerge v15.0.0 ('Duel with the Devil') 64-bit 2018-10-14 02:57:56 / mkvmerge v15.0.0 ('Duel with the Devil') 64-bit 2018-10-14 02:57:56 / UTC 2018-10-12T04:28:34Z
FromStats_BitRate                        : 83065
FromStats_Duration                       : 00:42:31.883000000
FromStats_FrameCount                     : 1670
FromStats_StreamSize                     : 26496628

Text #2
ID                                       : 5
Format                                   : PGS
Muxing mode                              : zlib
Codec ID                                 : S_HDMV/PGS
Codec ID/Info                            : Picture based subtitle format used on BDs/HD-DVDs
Language                                 : Spanish
Default                                  : No
Forced                                   : No
Statistics Tags Issue                    : mkvmerge v15.0.0 ('Duel with the Devil') 64-bit 2018-10-14 02:57:56 / mkvmerge v15.0.0 ('Duel with the Devil') 64-bit 2018-10-14 02:57:56 / UTC 2018-10-12T04:28:34Z
FromStats_BitRate                        : 71703
FromStats_Duration                       : 00:42:28.713000000
FromStats_FrameCount                     : 1436
FromStats_StreamSize                     : 22844013

Menu
00:00:00.000                             : :Chapter 1
00:03:00.847                             : :Chapter 2
00:11:44.245                             : :Chapter 3
00:21:29.163                             : :Chapter 4
00:31:32.474                             : :Chapter 5
00:43:28.022                             : :Chapter 6

 

Download Links

CONTRASEÑA PARA DESCOMPRIMIR

APORTES NUEVOS

cinemaniahdd.com

APORTES VIEJOS

CinemaniaHD.org

COMPRA O RENUEVA TU PREMIUM DE UPLOADED DESDE EL SIGUIENTE LINK:

http://ul.to/ref/9821430

SI GUSTAS PUEDES SEGUIRNOS EN LAS REDES SOCIALES

Facebook

Twitter

Post Relacionados