Identidad (2003) FULL HD 1080p Dual Latino

Diez extraños se ven atrapados por una terrible tormenta: un conductor de limusinas, una estrella de televisión de los años 80, un policía que escolta a un asesino, una prostituta, una pareja de recién casados y una familia en crisis; todos se cobijan en un lúgubre motel. Pero el alivio de haber encontrado refugio pronto se ve sustituido por el miedo cuando los diez viajeros empiezan a morir un por uno. Si quieren sobrevivir, tendrán que descubrir el secreto que les ha reunido en ese lugar.


Titulo Original Identity
Año 2003-04-25
Duracion 90
Director
Reparto
Productora Konrad Pictures, Columbia Pictures Corporation,
Genero Misterio, Suspense,
Titulo original Identity
Audio Español Latino AC3 5.1 - Inglés AC3 5.1
Calidad: FULL HD 1080p Resolucion: 1920x1080 Formato: MKV
Encoder: SebastianHDx Peso: 4.17 GB Duracion: 1h 30min
Subtitulos: Español Latino [PGS] - Forzados [SRT]
  • No hay video embed

Identidad (2003) FULL HD 1080p Dual Latino.mkv
Format : Matroska
Format version : Version 4 / Version 2
File size : 4.17 GiB
Duration : 1h 30mn
Overall bit rate : 6 637 Kbps
Encoded date : UTC 2016-12-30 02:45:01
Writing application : mkvmerge v8.6.1 ('Flying') 64bit
Writing library : libebml v1.3.3 + libmatroska v1.4.4
DURATION : 00:01:22.290000000
NUMBER_OF_FRAMES : 5
NUMBER_OF_BYTES : 138
_STATISTICS_WRITING_APP : mkvmerge v8.6.1 ('Flying') 64bit
_STATISTICS_WRITING_DATE_UT : 2016-12-30 02:45:01
_STATISTICS_TAGS : BPS DURATION NUMBER_OF_FRAMES NUMBER_OF_BYTES

Video
ID : 1
Format : AVC
Format/Info : Advanced Video Codec
Format profile : High@L4.1
Format settings, CABAC : Yes
Format settings, ReFrames : 4 frames
Codec ID : V_MPEG4/ISO/AVC
Duration : 1h 30mn
Bit rate : 5 225 Kbps
Width : 1 920 pixels
Height : 1 080 pixels
Display aspect ratio : 16:9
Frame rate mode : Constant
Frame rate : 23.976 fps
Color space : YUV
Chroma subsampling : 4:2:0
Bit depth : 8 bits
Scan type : Progressive
Bits/(Pixel*Frame) : 0.105
Stream size : 3.29 GiB (79%)
Writing library : x264 core 142 r2479 dd79a61
Encoding settings : cabac=1 / ref=4 / deblock=1:0:0 / analyse=0x3:0x133 / me=tesa / subme=11 / psy=1 / psy_rd=1.00:0.00 / mixed_ref=1 / me_range=24 / chroma_me=1 / trellis=2 / 8x8dct=1 / cqm=0 / deadzone=21,11 / fast_pskip=0 / chroma_qp_offset=-2 / threads=12 / lookahead_threads=3 / sliced_threads=0 / nr=0 / decimate=1 / interlaced=0 / bluray_compat=0 / constrained_intra=0 / bframes=16 / b_pyramid=2 / b_adapt=2 / b_bias=0 / direct=3 / weightb=1 / open_gop=0 / weightp=2 / keyint=240 / keyint_min=24 / scenecut=40 / intra_refresh=0 / rc_lookahead=60 / rc=crf / mbtree=1 / crf=20.0 / qcomp=0.60 / qpmin=0 / qpmax=69 / qpstep=4 / vbv_maxrate=62500 / vbv_bufsize=78125 / crf_max=0.0 / nal_hrd=none / filler=0 / ip_ratio=1.40 / aq=1:1.00
Default : Yes
Forced : No
Color range : Limited
Color primaries : BT.709
Transfer characteristics : BT.709
Matrix coefficients : BT.709
DURATION : 01:30:02.397000000
NUMBER_OF_FRAMES : 129528
NUMBER_OF_BYTES : 3598462189
_STATISTICS_WRITING_APP : mkvmerge v8.6.1 ('Flying') 64bit
_STATISTICS_WRITING_DATE_UT : 2016-12-30 02:45:01
_STATISTICS_TAGS : BPS DURATION NUMBER_OF_FRAMES NUMBER_OF_BYTES

Audio #1
ID : 2
Format : AC-3
Format/Info : Audio Coding 3
Mode extension : CM (complete main)
Format settings, Endianness : Big
Codec ID : A_AC3
Duration : 1h 30mn
Bit rate mode : Constant
Bit rate : 640 Kbps
Channel(s) : 6 channels
Channel positions : Front: L C R, Side: L R, LFE
Sampling rate : 48.0 KHz
Compression mode : Lossy
Delay relative to video : -83ms
Stream size : 412 MiB (10%)
Title : Español Latino AC3 5.1 [640 Kbps]
Language : Spanish
Default : Yes
Forced : No

Audio #2
ID : 3
Format : AC-3
Format/Info : Audio Coding 3
Mode extension : CM (complete main)
Format settings, Endianness : Big
Codec ID : A_AC3
Duration : 1h 30mn
Bit rate mode : Constant
Bit rate : 640 Kbps
Channel(s) : 6 channels
Channel positions : Front: L C R, Side: L R, LFE
Sampling rate : 48.0 KHz
Compression mode : Lossy
Delay relative to video : -83ms
Stream size : 412 MiB (10%)
Title : Inglés AC3 5.1 [640 Kbps]
Language : English
Default : No
Forced : No

Text #1
ID : 4
Format : PGS
Codec ID : S_HDMV/PGS
Codec ID/Info : Picture based subtitle format used on BDs/HD-DVDs
Title : Subtítulos Español Latino [PGS]
Language : Spanish
Default : No
Forced : No

Text #2
ID : 5
Format : UTF-8
Codec ID : S_TEXT/UTF8
Codec ID/Info : UTF-8 Plain Text
Title : Subtítulos Español Latino - Forzados [SRT]
Language : Spanish
Default : No
Forced : Yes

Menu
00:00:00.000 : :Chapter 1
00:04:36.651 : :Chapter 2
00:12:52.063 : :Chapter 3
00:17:15.701 : :Chapter 4
00:25:23.814 : :Chapter 5
00:33:05.817 : :Chapter 6
00:37:57.358 : :Chapter 7
00:40:51.866 : :Chapter 8
00:44:36.507 : :Chapter 9
00:50:37.993 : :Chapter 10
00:55:28.783 : :Chapter 11
01:01:29.394 : :Chapter 12
01:07:18.326 : :Chapter 13
01:09:34.753 : :Chapter 14
01:15:05.167 : :Chapter 15
01:19:23.467 : :Chapter 16

Download Links

CONTRASEÑA PARA DESCOMPRIMIR

APORTES NUEVOS

cinemaniahdd.com

APORTES VIEJOS

CinemaniaHD.org

COMPRA O RENUEVA TU PREMIUM DE UPLOADED DESDE EL SIGUIENTE LINK:

http://ul.to/ref/9821430

SI GUSTAS PUEDES SEGUIRNOS EN LAS REDES SOCIALES

Facebook

Twitter

Post Relacionados