Illang: La brigada del lobo (2018) NF 1080p Latino

Descargar Illang: La brigada del lobo (2018) NF 1080p Latino; Mega, Google Drive. Basada en el anime japonés “The Wolf Brigade” (1999) escrito por Mamoru Oshii. En el año 2029, tras anunciar los gobiernos de Corea del Norte y del Sur un plan quinquenal para unificar el país, las naciones más poderosas del mundo imponen unas fuertes sanciones que paralizan la economía y conducen a un periodo de caos infernal. Tras la aparición de un grupo terrorista armado llamado La Secta que se opone al gobierno y a la unificación, el presidente crea una nueva división policial llamada Unidad Especial que consigue un poder considerable. Pero el servicio de inteligencia, al ver decaer su propia influencia, trama un plan para aniquilar a la Unidad Especial. En medio de esta sangrienta lucha entre dos instituciones tan poderosas, surgen rumores sobre una “brigada del lobo” secreta que se está formando en el seno de la Unidad Especial.
Audio Latino AC3 5.1 Netflix – Audio Koreano AC3 5.1 Netflix



Titulo Original 인랑
Año 2018-07-25
Duracion 2h 19m
Director
Reparto , , , , , , , , , , , , , ,
Productora
Genero
Titulo original 인랑
Audio Se especifica abajo de la Sinopsis
Calidad: WEBDL Resolucion: 1920x1080p Formato: MKV
Encoder: CM Peso: 5.97 GiB Duracion: 2h 19m
Subtitulos: Español Latino SRT- FORZADOS SRT
  • No hay video embed

Illang The Wolf Brigade (2018) Web-DL NF 1080p Latino.mkv
Format: Matroska
Format version: Version 4 / Version 2
File size : 5.97 GiB
Duration: 2 h 19 min
Overall bit rate mode : Variable
Overall bit rate: 6 110 kb/s
Encoded date: UTC 2018-10-20 03:40:45
Writing application : mkvmerge v25.0.0 ('Prog Noir') 64-bit
Writing library : libebml v1.3.6 + libmatroska v1.4.9
Cover : Yes
Attachments : cover_land.jpg / small_cover.jpg / small_cover_land.jpg / cover.jpg

Video
ID: 1
Format: AVC
Format/Info : Advanced Video Codec
Format profile: Main@L4
Format settings : CABAC / 3 Ref Frames
Format settings, CABAC: Yes
Format settings, RefFrames: 3 frames
Codec ID: V_MPEG4/ISO/AVC
Duration: 2 h 19 min
Bit rate mode : Variable
Bit rate: 5 360 kb/s
Maximum bit rate: 8 040 kb/s
Width : 1 920 pixels
Height: 1 080 pixels
Display aspect ratio: 16:9
Frame rate mode : Constant
Frame rate: 23.976 (24000/1001) FPS
Color space : YUV
Chroma subsampling: 4:2:0
Bit depth : 8 bits
Scan type : Progressive
Bits/(Pixel*Frame): 0.108
Stream size : 5.22 GiB (87%)
Title : HD1080p [Web-DL]
Writing library : x264 core 148 r2715 7e75228
Encoding settings : cabac=1 / ref=3 / deblock=1:0:0 / analyse=0x1:0x111 / me=umh / subme=10 / psy=1 / psy_rd=1.00:0.00 / mixed_ref=1 / me_range=24 / chroma_me=1 / trellis=2 / 8x8dct=0 / cqm=0 / deadzone=21,11 / fast_pskip=1 / chroma_qp_offset=-2 / threads=8 / lookahead_threads=1 / sliced_threads=0 / nr=0 / decimate=1 / interlaced=0 / bluray_compat=0 / stitchable=1 / constrained_intra=0 / bframes=2 / b_pyramid=0 / b_adapt=2 / b_bias=0 / direct=3 / weightb=1 / open_gop=0 / weightp=2 / keyint=48 / keyint_min=25 / scenecut=0 / intra_refresh=0 / rc_lookahead=48 / rc=2pass / mbtree=1 / bitrate=5360 / ratetol=1.0 / qcomp=0.50 / qpmin=6 / qpmax=51 / qpstep=4 / cplxblur=20.0 / qblur=0.5 / vbv_maxrate=8040 / vbv_bufsize=10720 / nal_hrd=vbr / filler=0 / ip_ratio=1.40 / aq=1:1.00
Default : Yes
Forced: No

Audio #1
ID: 2
Format: AC-3
Format/Info : Audio Coding 3
Format settings, Endianness : Big
Codec ID: A_AC3
Duration: 2 h 19 min
Bit rate mode : Constant
Bit rate: 384 kb/s
Channel(s): 6 channels
Channel positions : Front: L C R, Side: L R, LFE
Sampling rate : 48.0 kHz
Frame rate: 31.250 FPS (1536 SPF)
Bit depth : 16 bits
Compression mode: Lossy
Stream size : 384 MiB (6%)
Title : AC3_5.1_NF_Esp
Language: Spanish
Service kind: Complete Main
Default : Yes
Forced: Yes

Audio #2
ID: 3
Format: AC-3
Format/Info : Audio Coding 3
Format settings, Endianness : Big
Codec ID: A_AC3
Duration: 2 h 19 min
Bit rate mode : Constant
Bit rate: 384 kb/s
Channel(s): 6 channels
Channel positions : Front: L C R, Side: L R, LFE
Sampling rate : 48.0 kHz
Frame rate: 31.250 FPS (1536 SPF)
Bit depth : 16 bits
Compression mode: Lossy
Stream size : 384 MiB (6%)
Title : AC3_5.1_NF_Kor
Language: Korean
Service kind: Complete Main
Default : No
Forced: No

Text #1
ID: 4
Format: UTF-8
Codec ID: S_TEXT/UTF8
Codec ID/Info : UTF-8 Plain Text
Duration: 2 h 14 min
Bit rate: 0 b/s
Count of elements : 22
Stream size : 934 Bytes (0%)
Title : Sub_Forzados
Language: Spanish
Default : Yes
Forced: Yes

Text #2
ID: 5
Format: UTF-8
Codec ID: S_TEXT/UTF8
Codec ID/Info : UTF-8 Plain Text
Duration: 2 h 18 min
Bit rate: 28 b/s
Count of elements : 846
Stream size : 28.5 KiB (0%)
Title : Sub_Esp
Language: Spanish
Default : No
Forced: No

Text #3
ID: 6
Format: UTF-8
Codec ID: S_TEXT/UTF8
Codec ID/Info : UTF-8 Plain Text
Duration: 2 h 18 min
Bit rate: 42 b/s
Count of elements : 972
Stream size : 43.4 KiB (0%)
Title : Sub_Kor
Language: Korean
Default : No
Forced: No

Download Links

CONTRASEÑA PARA DESCOMPRIMIR

APORTES NUEVOS

cinemaniahdd.com

APORTES VIEJOS

CinemaniaHD.org

COMPRA O RENUEVA TU PREMIUM DE UPLOADED DESDE EL SIGUIENTE LINK:

http://ul.to/ref/9821430

SI GUSTAS PUEDES SEGUIRNOS EN LAS REDES SOCIALES

Facebook

Twitter

Post Relacionados