Infiltrado en el KKKlan (2018) 1080p Latino

Descargar Infiltrado en el KKKlan (2018) 1080p Latino; Mega, Google Drive. A principios de los años setenta, una época de gran agitación social con la encarnizada lucha por los derechos civiles como telón de fondo, Ron Stallworth se convierte en el primer detective negro del departamento de policía de Colorado Springs, pero es recibido con escepticismo y hostilidad por los mandos y los agentes. Sin amedrentarse, decide seguir adelante y hacer algo por su comunidad llevando a cabo una misión muy peligrosa: infiltrarse en el Ku Klux Klan y exponerlo ante la ciudad.



Titulo original BlacKkKlansman
Audio Español Latino AC3 5.1 BLURAY - Ingles AC3 5.1 BLURAY
Calidad: 1080p Resolucion: 1920x808p Formato: MKV
Encoder: CinefiloCool Peso: 4.30 GiB Duracion: 2h 15m
Subtitulos: Español Latino SRT - Ingles SRT
  • No hay video embed

Infiltrado en el KKKlan (2018) 1080p Latino.mkv
Format: Matroska
Format version: Version 4 / Version 2
File size : 4.30 GiB
Duration: 2 h 14 min
Overall bit rate: 4 569 kb/s
Movie name: CinemaniaHDD.Net
Encoded date: UTC 2018-11-06 02:44:17 / UTC 2018-11-05T17:57:52Z
Writing application : mkvmerge v25.0.0 ('Prog Noir') 64-bit
Writing library : libebml v1.3.6 + libmatroska v1.4.9 / Lavf57.7.2

Video
ID: 1
Format: AVC
Format/Info : Advanced Video Codec
Format profile: High@L4.1
Format settings : CABAC / 5 Ref Frames
Format settings, CABAC: Yes
Format settings, RefFrames: 5 frames
Codec ID: V_MPEG4/ISO/AVC
Duration: 2 h 14 min
Bit rate: 3 500 kb/s
Width : 1 920 pixels
Height: 808 pixels
Display aspect ratio: 2.40:1
Frame rate mode : Constant
Frame rate: 23.976 (24000/1001) FPS
Color space : YUV
Chroma subsampling: 4:2:0
Bit depth : 8 bits
Scan type : Progressive
Bits/(Pixel*Frame): 0.094
Stream size : 3.19 GiB (74%)
Title : HD1080p [Bluray]
Writing library : x264 core 155 r2893 b00bcaf
Encoding settings : cabac=1 / ref=5 / deblock=1:0:0 / analyse=0x3:0x113 / me=hex / subme=8 / psy=1 / psy_rd=1.00:0.00 / mixed_ref=1 / me_range=16 / chroma_me=1 / trellis=2 / 8x8dct=1 / cqm=0 / deadzone=21,11 / fast_pskip=1 / chroma_qp_offset=-2 / threads=25 / lookahead_threads=4 / sliced_threads=0 / nr=0 / decimate=1 / interlaced=0 / bluray_compat=0 / constrained_intra=0 / bframes=3 / b_pyramid=2 / b_adapt=1 / b_bias=0 / direct=3 / weightb=1 / open_gop=0 / weightp=2 / keyint=240 / keyint_min=24 / scenecut=40 / intra_refresh=0 / rc_lookahead=50 / rc=abr / mbtree=1 / bitrate=3500 / ratetol=1.0 / qcomp=0.60 / qpmin=0 / qpmax=69 / qpstep=4 / vbv_maxrate=62500 / vbv_bufsize=78125 / nal_hrd=none / filler=0 / ip_ratio=1.40 / aq=1:1.00
Default : Yes
Forced: No
Color range : Limited
Color primaries : BT.709
Transfer characteristics: BT.709
Matrix coefficients : BT.709
Statistics Tags Issue : mkvmerge v25.0.0 ('Prog Noir') 64-bit 2018-11-06 02:44:17 / mkvmerge v25.0.0 ('Prog Noir') 64-bit 2018-11-06 02:44:17 / UTC 2018-11-05T17:57:52Z
FromStats_BitRate : 3478261
FromStats_Duration: 02:14:49.040000000
FromStats_FrameCount: 193943
FromStats_StreamSize: 3516974645

Audio #1
ID: 2
Format: AC-3
Format/Info : Audio Coding 3
Format settings, Endianness : Big
Codec ID: A_AC3
Duration: 2 h 14 min
Bit rate mode : Constant
Bit rate: 640 kb/s
Channel(s): 6 channels
Channel positions : Front: L C R, Side: L R, LFE
Sampling rate : 48.0 kHz
Frame rate: 31.250 FPS (1536 SPF)
Bit depth : 16 bits
Compression mode: Lossy
Delay relative to video : -5 ms
Stream size : 617 MiB (14%)
Title : AC3_5.1_Bluray_Esp
Language: Spanish
Service kind: Complete Main
Default : Yes
Forced: Yes
Statistics Tags Issue : mkvmerge v25.0.0 ('Prog Noir') 64-bit 2018-11-06 02:44:17 / mkvmerge v25.0.0 ('Prog Noir') 64-bit 2018-11-06 02:44:17 / UTC 2018-11-05T17:57:52Z
FromStats_BitRate : 640000
FromStats_Duration: 02:14:49.088000000
FromStats_FrameCount: 252784
FromStats_StreamSize: 647127040

Audio #2
ID: 3
Format: AC-3
Format/Info : Audio Coding 3
Format settings, Endianness : Big
Codec ID: A_AC3
Duration: 2 h 14 min
Bit rate mode : Constant
Bit rate: 448 kb/s
Channel(s): 6 channels
Channel positions : Front: L C R, Side: L R, LFE
Sampling rate : 48.0 kHz
Frame rate: 31.250 FPS (1536 SPF)
Bit depth : 16 bits
Compression mode: Lossy
Stream size : 432 MiB (10%)
Title : AC3_5.1_Bluray_Eng
Language: English
Service kind: Complete Main
Default : No
Forced: No
Statistics Tags Issue : mkvmerge v25.0.0 ('Prog Noir') 64-bit 2018-11-06 02:44:17 / mkvmerge v25.0.0 ('Prog Noir') 64-bit 2018-11-06 02:44:17 / UTC 2018-11-05T17:57:52Z
FromStats_BitRate : 448000
FromStats_Duration: 02:14:49.088000000
FromStats_FrameCount: 252784
FromStats_StreamSize: 452988928

Text #1
ID: 4
Format: UTF-8
Codec ID: S_TEXT/UTF8
Codec ID/Info : UTF-8 Plain Text
Title : Sub_Forzados
Language: Spanish
Default : Yes
Forced: Yes
Statistics Tags Issue : mkvmerge v25.0.0 ('Prog Noir') 64-bit 2018-11-06 02:44:17 / mkvmerge v25.0.0 ('Prog Noir') 64-bit 2018-11-06 02:44:17 / UTC 2018-11-05T17:57:52Z
FromStats_BitRate : 2
FromStats_Duration: 02:06:35.370000000
FromStats_FrameCount: 55
FromStats_StreamSize: 2040

Text #2
ID: 5
Format: UTF-8
Codec ID: S_TEXT/UTF8
Codec ID/Info : UTF-8 Plain Text
Title : Sub_Esp
Language: Spanish
Default : No
Forced: No
Statistics Tags Issue : mkvmerge v25.0.0 ('Prog Noir') 64-bit 2018-11-06 02:44:17 / mkvmerge v25.0.0 ('Prog Noir') 64-bit 2018-11-06 02:44:17 / UTC 2018-11-05T17:57:52Z
FromStats_BitRate : 90
FromStats_Duration: 02:07:57.704000000
FromStats_FrameCount: 2641
FromStats_StreamSize: 86524

Text #3
ID: 6
Format: UTF-8
Codec ID: S_TEXT/UTF8
Codec ID/Info : UTF-8 Plain Text
Title : Sub_Eng
Language: English
Default : No
Forced: No
Statistics Tags Issue : mkvmerge v25.0.0 ('Prog Noir') 64-bit 2018-11-06 02:44:17 / mkvmerge v25.0.0 ('Prog Noir') 64-bit 2018-11-06 02:44:17 / UTC 2018-11-05T17:57:52Z
FromStats_BitRate : 84
FromStats_Duration: 02:07:45.151000000
FromStats_FrameCount: 2445
FromStats_StreamSize: 81122

Menu
00:00:00.000: :00:00:00.000
00:04:10.250: :00:04:10.250
00:13:54.876: :00:13:54.876
00:23:16.604: :00:23:16.604
00:27:56.508: :00:27:56.508
00:36:10.669: :00:36:10.668
00:43:21.557: :00:43:21.557
00:48:30.616: :00:48:30.616
00:54:58.629: :00:54:58.629
00:59:48.543: :00:59:48.543
01:07:04.771: :01:07:04.771
01:16:37.802: :01:16:37.802
01:22:20.394: :01:22:20.394
01:29:38.123: :01:29:38.123
01:39:10.653: :01:39:10.653
01:48:27.042: :01:48:27.042
01:56:05.584: :01:56:05.584
02:00:43.945: :02:00:43.945
02:03:57.430: :02:03:57.430
02:09:03.653: :02:09:03.569

Download Links

CONTRASEÑA PARA DESCOMPRIMIR

APORTES NUEVOS

cinemaniahdd.com

APORTES VIEJOS

CinemaniaHD.org

COMPRA O RENUEVA TU PREMIUM DE UPLOADED DESDE EL SIGUIENTE LINK:

http://ul.to/ref/9821430

SI GUSTAS PUEDES SEGUIRNOS EN LAS REDES SOCIALES

Facebook

Twitter

Post Relacionados