Johnny English (2018) HD 1080p Español

Descargar Johnny English (2018) HD 1080p Español, Mega, Google Drive, Torrent. Tercera entrega de la saga cómica Johnny English, con Rowan Atkison de regreso en el papel del muy querido agente secreto. Esta nueva aventura empieza cuando un ciberataque revela la identidad de todos los agentes de incógnito de Gran Bretaña, por lo que Johnny English es la última esperanza para los servicios secretos. Al verse sacado de su plácida vida de jubilado, English se lanza sin contemplaciones a la busca y captura del hacker que lo planeó todo. Nuestro héroe, un hombre de pocas habilidades y métodos analógicos, deberá superar los retos que plantea la tecnología moderna para que su misión se convierta en un éxito.
¡Ojo!
Audio Español Castellano AC3 5.1 DVD



Titulo Original Johnny English Strikes Again
Año 2018-09-13
Duracion 1h 29m
Director
Reparto
Productora
Genero
Titulo original Johnny English Strikes Again
Audio Español Castellano AC3 5.1 DVD- Ingles AC3 5.1 BLURAY
Calidad: 1080p Resolucion: 1920x804 Formato: MKV
Encoder: chesse92 Peso: 2.74 GiB Duracion: 1h 29m
Subtitulos: Español Latino SRT- FORZADOS SRT
  • No hay video embed

Johnny English Strikes Again (2018) HD 1080p Español.mkv
Format: Matroska
Format version: Version 4
File size : 2.74 GiB
Duration: 1 h 28 min
Overall bit rate: 4 428 kb/s
Movie name: CinemaniaHDD.net
Encoded date: UTC 2018-12-19 01:08:12 / UTC 2018-12-17T20:49:18Z
Writing application : mkvmerge v28.2.0 ('The Awakening') 64-bit
Writing library : libebml v1.3.6 + libmatroska v1.4.9 / Lavf57.7.2

Video
ID: 1
Format: AVC
Format/Info : Advanced Video Codec
Format profile: High@L4.1
Format settings : CABAC / 4 Ref Frames
Format settings, CABAC: Yes
Format settings, ReFrames : 4 frames
Codec ID: V_MPEG4/ISO/AVC
Duration: 1 h 28 min
Bit rate: 3 600 kb/s
Width : 1 920 pixels
Height: 804 pixels
Display aspect ratio: 2.40:1
Frame rate mode : Constant
Frame rate: 23.976 (24000/1001) FPS
Color space : YUV
Chroma subsampling: 4:2:0
Bit depth : 8 bits
Scan type : Progressive
Bits/(Pixel*Frame): 0.097
Stream size : 2.18 GiB (80%)
Writing library : x264 core 155 r2901 7d0ff22
Encoding settings : cabac=1 / ref=3 / deblock=1:0:0 / analyse=0x3:0x113 / me=hex / subme=7 / psy=1 / psy_rd=1.00:0.00 / mixed_ref=1 / me_range=16 / chroma_me=1 / trellis=1 / 8x8dct=1 / cqm=0 / deadzone=21,11 / fast_pskip=1 / chroma_qp_offset=-2 / threads=25 / lookahead_threads=4 / sliced_threads=0 / nr=0 / decimate=1 / interlaced=0 / bluray_compat=0 / constrained_intra=0 / bframes=3 / b_pyramid=2 / b_adapt=1 / b_bias=0 / direct=1 / weightb=1 / open_gop=0 / weightp=2 / keyint=240 / keyint_min=24 / scenecut=40 / intra_refresh=0 / rc_lookahead=40 / rc=abr / mbtree=1 / bitrate=3600 / ratetol=1.0 / qcomp=0.60 / qpmin=0 / qpmax=69 / qpstep=4 / vbv_maxrate=62500 / vbv_bufsize=78125 / nal_hrd=none / filler=0 / ip_ratio=1.40 / aq=1:1.00
Default : Yes
Forced: No
Color range : Limited
Color primaries : BT.709
Transfer characteristics: BT.709
Matrix coefficients : BT.709

Audio #1
ID: 2
Format: AC-3
Format/Info : Audio Coding 3
Commercial name : Dolby Digital
Codec ID: A_AC3
Duration: 1 h 28 min
Bit rate mode : Constant
Bit rate: 448 kb/s
Channel(s): 6 channels
Channel layout: L R C LFE Ls Rs
Sampling rate : 48.0 kHz
Frame rate: 31.250 FPS (1536 SPF)
Bit depth : 16 bits
Compression mode: Lossy
Delay relative to video : 19 ms
Stream size : 284 MiB (10%)
Language: Spanish
Service kind: Complete Main
Default : Yes
Forced: No

Audio #2
ID: 3
Format: AC-3
Format/Info : Audio Coding 3
Commercial name : Dolby Digital
Codec ID: A_AC3
Duration: 1 h 28 min
Bit rate mode : Constant
Bit rate: 448 kb/s
Channel(s): 6 channels
Channel layout: L R C LFE Ls Rs
Sampling rate : 48.0 kHz
Frame rate: 31.250 FPS (1536 SPF)
Bit depth : 16 bits
Compression mode: Lossy
Stream size : 284 MiB (10%)
Title : Surround
Language: English
Service kind: Complete Main
Default : No
Forced: No

Text #1
ID: 4
Format: UTF-8
Codec ID: S_TEXT/UTF8
Codec ID/Info : UTF-8 Plain Text
Duration: 1 h 22 min
Bit rate: 53 b/s
Count of elements : 1025
Stream size : 32.6 KiB (0%)
Language: Spanish
Default : Yes
Forced: No

Text #2
ID: 5
Format: UTF-8
Codec ID: S_TEXT/UTF8
Codec ID/Info : UTF-8 Plain Text
Duration: 1 h 2 min
Bit rate: 1 b/s
Count of elements : 24
Stream size : 555 Bytes (0%)
Language: Spanish
Default : No
Forced: Yes

Menu
00:00:00.000: :Chapter 1
00:05:06.807: :Chapter 2
00:09:05.545: :Chapter 3
00:13:14.794: :Chapter 4
00:19:22.370: :Chapter 5
00:21:31.999: :Chapter 6
00:26:42.142: :Chapter 7
00:32:31.241: :Chapter 8
00:34:48.086: :Chapter 9
00:39:49.429: :Chapter 10
00:45:49.288: :Chapter 11
00:51:22.371: :Chapter 12
00:54:31.852: :Chapter 13
00:58:58.368: :Chapter 14
01:02:58.566: :Chapter 15
01:08:21.598: :Chapter 16
01:11:41.130: :Chapter 17
01:15:03.416: :Chapter 18
01:20:54.975: :Chapter 19
01:23:52.528: :Chapter 20

Download Links

CONTRASEÑA PARA DESCOMPRIMIR

APORTES NUEVOS

cinemaniahdd.com

APORTES VIEJOS

CinemaniaHD.org

COMPRA O RENUEVA TU PREMIUM DE UPLOADED DESDE EL SIGUIENTE LINK:

http://ul.to/ref/9821430

SI GUSTAS PUEDES SEGUIRNOS EN LAS REDES SOCIALES

Facebook

Twitter

Post Relacionados