Jóvenes Titanes en acción la película (2018) Full 1080p Latino

Cuando los Jóvenes Titanes se enteran de que otros superhéroes de DC han realizado sus propias películas, estos buscaran encontrar en un viaje épico un director perfecto para su debut en la gran pantalla, pero un viejo enemigo tiene otras ideas planeadas para ellos.



Titulo original Teen Titans Go! To the Movies
Audio Español Latino AC3 5.1 BLURAY - Ingles DTS 5.1 BLURAY
Calidad: Full 1080p Resolucion: 1920x1080p Formato: MKV
Encoder: Dracarys Peso: 4.95 GiB Duracion: 1h 24m
Subtitulos: Español Latino PGS
  • No hay video embed

Format                                 : Matroska
Format version                         : Version 4 / Version 2
File size                              : 4.95 GiB
Duration                               : 1 h 24 min
Overall bit rate                       : 8 432 kb/s
Movie name                             : CinemaniaHDD.net
Encoded date                           : UTC 2018-10-25 02:10:32 / UTC 2018-10-24T23:08:22Z
Writing application                    : mkvmerge v15.0.0 ('Duel with the Devil') 64-bit
Writing library                        : libebml v1.3.5 + libmatroska v1.4.5 / Lavf57.7.2

Video
ID                                     : 1
Format                                 : AVC
Format/Info                            : Advanced Video Codec
Format profile                         : High@L4.1
Format settings                        : CABAC / 4 Ref Frames
Format settings, CABAC                 : Yes
Format settings, RefFrames             : 4 frames
Codec ID                               : V_MPEG4/ISO/AVC
Duration                               : 1 h 24 min
Bit rate                               : 6 115 kb/s
Width                                  : 1 920 pixels
Height                                 : 1 080 pixels
Display aspect ratio                   : 16:9
Frame rate mode                        : Constant
Frame rate                             : 23.976 (24000/1001) FPS
Color space                            : YUV
Chroma subsampling                     : 4:2:0
Bit depth                              : 8 bits
Scan type                              : Progressive
Bits/(Pixel*Frame)                     : 0.123
Stream size                            : 3.59 GiB (73%)
Writing library                        : x264 core 148 r2708 86b7198
Encoding settings                      : cabac=1 / ref=4 / deblock=1:0:0 / analyse=0x3:0x133 / me=esa / subme=10 / psy=1 / psy_rd=1.00:0.00 / mixed_ref=1 / me_range=24 / chroma_me=1 / trellis=2 / 8x8dct=1 / cqm=0 / deadzone=21,11 / fast_pskip=1 / chroma_qp_offset=-2 / threads=34 / lookahead_threads=5 / sliced_threads=0 / nr=0 / decimate=1 / interlaced=0 / bluray_compat=0 / constrained_intra=0 / bframes=8 / b_pyramid=2 / b_adapt=2 / b_bias=0 / direct=3 / weightb=1 / open_gop=0 / weightp=2 / keyint=240 / keyint_min=24 / scenecut=40 / intra_refresh=0 / rc_lookahead=60 / rc=crf / mbtree=1 / crf=20.0 / qcomp=0.60 / qpmin=0 / qpmax=69 / qpstep=4 / vbv_maxrate=62500 / vbv_bufsize=78125 / crf_max=0.0 / nal_hrd=none / filler=0 / ip_ratio=1.40 / aq=1:1.00
Language                               : English
Default                                : Yes
Forced                                 : No
Color range                            : Limited
Color primaries                        : BT.709
Transfer characteristics               : BT.709
Matrix coefficients                    : BT.709
Statistics Tags Issue                  : mkvmerge v15.0.0 ('Duel with the Devil') 64-bit 2018-10-25 02:10:32 / mkvmerge v15.0.0 ('Duel with the Devil') 64-bit 2018-10-25 02:10:32 / UTC 2018-10-24T23:08:22Z
FromStats_BitRate                      : 6268368
FromStats_Duration                     : 01:24:03.581000000
FromStats_FrameCount                   : 120925
FromStats_StreamSize                   : 3951878080

Audio #1
ID                                     : 2
Format                                 : AC-3
Format/Info                            : Audio Coding 3
Format settings, Endianness            : Big
Codec ID                               : A_AC3
Duration                               : 1 h 24 min
Bit rate mode                          : Constant
Bit rate                               : 640 kb/s
Channel(s)                             : 6 channels
Channel positions                      : Front: L C R, Side: L R, LFE
Sampling rate                          : 48.0 kHz
Frame rate                             : 31.250 FPS (1536 SPF)
Bit depth                              : 16 bits
Compression mode                       : Lossy
Stream size                            : 385 MiB (8%)
Language                               : Spanish
Service kind                           : Complete Main
Default                                : Yes
Forced                                 : No
Statistics Tags Issue                  : mkvmerge v15.0.0 ('Duel with the Devil') 64-bit 2018-10-25 02:10:32 / mkvmerge v15.0.0 ('Duel with the Devil') 64-bit 2018-10-25 02:10:32 / UTC 2018-10-24T23:08:22Z
FromStats_BitRate                      : 640000
FromStats_Duration                     : 01:24:03.584000000
FromStats_FrameCount                   : 157612
FromStats_StreamSize                   : 403486720

Audio #2
ID                                     : 3
Format                                 : DTS
Format/Info                            : Digital Theater Systems
Mode                                   : 16
Format settings, Endianness            : Big
Codec ID                               : A_DTS
Duration                               : 1 h 24 min
Bit rate mode                          : Constant
Bit rate                               : 1 509 kb/s
Channel(s)                             : 6 channels
Channel positions                      : Front: L C R, Side: L R, LFE
Sampling rate                          : 48.0 kHz
Frame rate                             : 93.750 FPS (512 SPF)
Bit depth                              : 24 bits
Compression mode                       : Lossy
Stream size                            : 907 MiB (18%)
Language                               : English
Default                                : No
Forced                                 : No
Statistics Tags Issue                  : mkvmerge v15.0.0 ('Duel with the Devil') 64-bit 2018-10-25 02:10:32 / mkvmerge v15.0.0 ('Duel with the Devil') 64-bit 2018-10-25 02:10:32 / UTC 2018-10-24T23:08:22Z
FromStats_BitRate                      : 1509000
FromStats_Duration                     : 01:24:03.584000000
FromStats_FrameCount                   : 472836
FromStats_StreamSize                   : 951346032

Text
ID                                     : 4
Format                                 : PGS
Muxing mode                            : zlib
Codec ID                               : S_HDMV/PGS
Codec ID/Info                          : Picture based subtitle format used on BDs/HD-DVDs
Language                               : Spanish
Default                                : No
Forced                                 : No
Statistics Tags Issue                  : mkvmerge v15.0.0 ('Duel with the Devil') 64-bit 2018-10-25 02:10:32 / mkvmerge v15.0.0 ('Duel with the Devil') 64-bit 2018-10-25 02:10:32 / UTC 2018-10-24T23:08:22Z
FromStats_BitRate                      : 40647
FromStats_Duration                     : 01:22:47.129000000
FromStats_FrameCount                   : 2542
FromStats_StreamSize                   : 25237872

Menu
00:00:00.000                           : :Chapter 1
00:10:26.126                           : :Chapter 2
00:20:20.594                           : :Chapter 3
00:32:50.093                           : :Chapter 4
00:42:39.474                           : :Chapter 5
00:51:32.339                           : :Chapter 6
01:02:41.841                           : :Chapter 7
01:08:43.995                           : :Chapter 8
01:17:25.474                           : :Chapter 9

 

Download Links

CONTRASEÑA PARA DESCOMPRIMIR

APORTES NUEVOS

cinemaniahdd.com

APORTES VIEJOS

CinemaniaHD.org

COMPRA O RENUEVA TU PREMIUM DE UPLOADED DESDE EL SIGUIENTE LINK:

http://ul.to/ref/9821430

SI GUSTAS PUEDES SEGUIRNOS EN LAS REDES SOCIALES

Facebook

Twitter

Post Relacionados