Juego de Tronos Temporada 5 Completa HDTV 1080 Dual Latino

Game of Thrones Trata sobre un reynado en la era medieval,todos tratan de apoderarse del reyno.Les traemos esra excelente serie que es la Temporada 5 1080p Latino Completa.

 

Capitulo 1,Capitulo 2,Capitulo 3,Capitulo 4,Capitulo 5,Capitulo 6,Capitulo 7,Capitulo 8,Capitulo 9,Capitulo 10

 



Titulo Original Game of Thrones
Año 2015
Duracion 53 Min
Director
Reparto Lena Headey, Peter Dinklage, Maisie Williams, Emilia Clarke
Productora Lena Headey, Peter Dinklage, Maisie Williams, Emilia Clarke
Genero
Titulo original Game Of Thrones HD 1080p Temporada 5 Completa Latino MKV Mega
Audio Español Latino (AC3 2.0 Capturado)-Ingles (AC3 2.0)
Calidad: HDTV FULL 1080p Resolucion: 1920x1080 Formato: MKV
Encoder: olakhace Peso: 1.5 GB Duracion: 52:43
Subtitulos: Español Latino (.srt)
  • No hay video embed

Juego de Tronos (2015) Temporada 5 Completa HDTV FULL 1080 Dual Latino -Capitulo 1[WwW.CinemaniaHDD.com].mkv
Format : Matroska
Format version : Version 4 / Version 2
File size : 1.50 GiB
Duration : 52mn 43s
Overall bit rate : 4 077 Kbps
Movie name : Juego de Tronos (2015) Temporada 5 Completa HDTV FULL 1080 Dual Latino -Capitulo 1[WwW.CinemaniaHDD.com]
Encoded date : UTC 2015-04-13 15:41:25
Writing application : mkvmerge v7.7.0 ('Six Voices') 64bit built on Feb 28 2015 23:39:33
Writing library : libebml v1.3.1 + libmatroska v1.4.2
DURATION : 00:46:40.784000000
NUMBER_OF_FRAMES : 626
NUMBER_OF_BYTES : 21867
_STATISTICS_WRITING_APP : mkvmerge v7.7.0 ('Six Voices') 64bit built on Feb 28 2015 23:39:33
_STATISTICS_WRITING_DATE_UT : 2015-04-13 15:41:25
_STATISTICS_TAGS : BPS DURATION NUMBER_OF_FRAMES NUMBER_OF_BYTES

Video
ID : 1
Format : AVC
Format/Info : Advanced Video Codec
Format profile : High@L4.1
Format settings, CABAC : Yes
Format settings, ReFrames : 4 frames
Codec ID : V_MPEG4/ISO/AVC
Duration : 52mn 43s
Bit rate : 3 420 Kbps
Width : 1 920 pixels
Height : 1 080 pixels
Display aspect ratio : 16:9
Frame rate mode : Constant
Frame rate : 23.976 fps
Color space : YUV
Chroma subsampling : 4:2:0
Bit depth : 8 bits
Scan type : Progressive
Bits/(Pixel*Frame) : 0.069
Stream size : 1.26 GiB (84%)
Title : [WwW.CinemaniaHDD.com]
Default : Yes
Forced : No
Color primaries : BT.709
Transfer characteristics : BT.709
Matrix coefficients : BT.709
Color range : Limited
DURATION : 00:52:43.368000000
NUMBER_OF_FRAMES : 75845
NUMBER_OF_BYTES : 1384168766
_STATISTICS_WRITING_APP : mkvmerge v7.7.0 ('Six Voices') 64bit built on Feb 28 2015 23:39:33
_STATISTICS_WRITING_DATE_UT : 2015-04-13 15:41:25
_STATISTICS_TAGS : BPS DURATION NUMBER_OF_FRAMES NUMBER_OF_BYTES

Audio #1
ID : 2
Format : AC-3
Format/Info : Audio Coding 3
Mode extension : CM (complete main)
Format settings, Endianness : Big
Codec ID : A_AC3
Duration : 52mn 43s
Bit rate mode : Constant
Bit rate : 192 Kbps
Channel(s) : 2 channels
Channel positions : Front: L R
Sampling rate : 48.0 KHz
Bit depth : 16 bits
Compression mode : Lossy
Stream size : 72.4 MiB (5%)
Title : Audio Latino[WwW.CinemaniaHDD.com]
Language : Latin
Default : Yes
Forced : No
DURATION : 00:52:43.296000000
NUMBER_OF_FRAMES : 98853
NUMBER_OF_BYTES : 151838208
_STATISTICS_WRITING_APP : mkvmerge v7.7.0 ('Six Voices') 64bit built on Feb 28 2015 23:39:33
_STATISTICS_WRITING_DATE_UT : 2015-04-13 15:41:25
_STATISTICS_TAGS : BPS DURATION NUMBER_OF_FRAMES NUMBER_OF_BYTES

Audio #2
ID : 3
Format : AC-3
Format/Info : Audio Coding 3
Mode extension : CM (complete main)
Format settings, Endianness : Big
Codec ID : A_AC3
Duration : 52mn 43s
Bit rate mode : Constant
Bit rate : 384 Kbps
Channel(s) : 2 channels
Channel positions : Front: L R
Sampling rate : 48.0 KHz
Bit depth : 16 bits
Compression mode : Lossy
Delay relative to video : 21ms
Stream size : 145 MiB (9%)
Title : Audio Ingles[WwW.CinemaniaHDD.com]
Language : English
Default : No
Forced : No
DURATION : 00:50:46.477000000
NUMBER_OF_FRAMES : 693
NUMBER_OF_BYTES : 50988
_STATISTICS_WRITING_APP : mkvmerge v7.7.0 ('Six Voices') 64bit built on Feb 28 2015 23:39:33
_STATISTICS_WRITING_DATE_UT : 2015-04-13 15:41:25
_STATISTICS_TAGS : BPS DURATION NUMBER_OF_FRAMES NUMBER_OF_BYTES

Text #1
ID : 4
Format : ASS
Codec ID : S_TEXT/ASS
Codec ID/Info : Advanced Sub Station Alpha
Compression mode : Lossless
Title : Subtitulos Ingles[WwW.CinemaniaHDD.com]
Language : English
Default : No
Forced : No

Text #2
ID : 5
Format : UTF-8
Codec ID : S_TEXT/UTF8
Codec ID/Info : UTF-8 Plain Text
Title : [WwW.CinemaniaHDD.com]
Language : Latin
Default : Yes
Forced : No

Text #3
ID : 6
Format : UTF-8
Codec ID : S_TEXT/UTF8
Codec ID/Info : UTF-8 Plain Text
Title : Subtitulos Latino[WwW.CinemaniaHDD.com]
Language : Latin
Default : No
Forced : No

Download Links

CONTRASEÑA PARA DESCOMPRIMIR

APORTES NUEVOS

cinemaniahdd.com

APORTES VIEJOS

CinemaniaHD.org

COMPRA O RENUEVA TU PREMIUM DE UPLOADED DESDE EL SIGUIENTE LINK:

http://ul.to/ref/9821430

SI GUSTAS PUEDES SEGUIRNOS EN LAS REDES SOCIALES

Facebook

Twitter

Post Relacionados