Kin (2018) Web-DL 1080p Subtitulado

descargar Kin (2018) Web-DL 1080p Subtitulado; Mega, Google Drive. Perseguidos por un criminal vengativo (James Franco) y una banda de soldados sobrenaturales,​ un exconvicto recién liberado (Jack Reynor) y su hermano adolescente adoptado (Myles Truitt) se ven obligados a escapar con un arma de origen misterioso que es su única protección.



Titulo original Kin
Audio Ingles AC3 5.1 iTunes
Calidad: WEBDL Resolucion: 1908x792p Formato: MKV
Encoder: FGT Peso: 3.62 GiB Duracion: 1h 42m
Subtitulos: Español Latino SRT - Ingles SRT
  • No hay video embed

Kin (2018) Web-DL 1080p Subtitulado.mkv
Format: Matroska
Format version: Version 4 / Version 2
File size : 3.62 GiB
Duration: 1 h 42 min
Overall bit rate: 5 047 kb/s
Movie name: CinemaniaHDD.Net
Encoded date: UTC 2018-11-07 03:12:14
Writing application : mkvmerge v25.0.0 ('Prog Noir') 64-bit
Writing library : libebml v1.3.6 + libmatroska v1.4.9

Video
ID: 1
Format: AVC
Format/Info : Advanced Video Codec
Format profile: High@L4
Format settings : CABAC / 5 Ref Frames
Format settings, CABAC: Yes
Format settings, RefFrames: 5 frames
Codec ID: V_MPEG4/ISO/AVC
Duration: 1 h 42 min
Bit rate: 4 661 kb/s
Width : 1 908 pixels
Height: 792 pixels
Display aspect ratio: 2.40:1
Frame rate mode : Constant
Frame rate: 23.976 (24000/1001) FPS
Color space : YUV
Chroma subsampling: 4:2:0
Bit depth : 8 bits
Scan type : Progressive
Bits/(Pixel*Frame): 0.129
Stream size : 3.34 GiB (92%)
Title : HD1080p [Web-DL]
Language: English
Default : Yes
Forced: No
Color range : Limited
Color primaries : BT.709
Transfer characteristics: BT.709
Matrix coefficients : BT.709

Audio
ID: 2
Format: AC-3
Format/Info : Audio Coding 3
Format settings, Endianness : Big
Codec ID: A_AC3
Duration: 1 h 42 min
Bit rate mode : Constant
Bit rate: 384 kb/s
Channel(s): 6 channels
Channel positions : Front: L C R, Side: L R, LFE
Sampling rate : 48.0 kHz
Frame rate: 31.250 FPS (1536 SPF)
Bit depth : 16 bits
Compression mode: Lossy
Delay relative to video : -42 ms
Stream size : 282 MiB (8%)
Title : AC3_5.1_Web-DL_Eng
Language: English
Service kind: Complete Main
Default : Yes
Forced: No

Text #1
ID: 3
Format: UTF-8
Codec ID: S_TEXT/UTF8
Codec ID/Info : UTF-8 Plain Text
Duration: 1 h 35 min
Bit rate: 45 b/s
Count of elements : 1039
Stream size : 32.0 KiB (0%)
Title : Sub_Esp
Language: Spanish
Default : Yes
Forced: Yes

Text #2
ID: 4
Format: UTF-8
Codec ID: S_TEXT/UTF8
Codec ID/Info : UTF-8 Plain Text
Duration: 1 h 36 min
Bit rate: 40 b/s
Count of elements : 1030
Stream size : 28.7 KiB (0%)
Title : Sub_Eng
Language: English
Default : No
Forced: No

Menu
00:00:00.000: en:1
00:07:31.000: en:2
00:17:57.000: en:3
00:27:19.000: en:4
00:37:52.000: en:5
00:46:41.000: en:6
00:56:58.000: en:7
01:06:37.000: en:8
01:15:09.000: en:9
01:25:50.000: en:10
01:36:26.000: en:11

Download Links

CONTRASEÑA PARA DESCOMPRIMIR

APORTES NUEVOS

cinemaniahdd.com

APORTES VIEJOS

CinemaniaHD.org

COMPRA O RENUEVA TU PREMIUM DE UPLOADED DESDE EL SIGUIENTE LINK:

http://ul.to/ref/9821430

SI GUSTAS PUEDES SEGUIRNOS EN LAS REDES SOCIALES

Facebook

Twitter

Post Relacionados