La Balada de Lefty Brown (2017) 1080p Latino

La Balada de Lefty Brown (2017) 1080p Latino; Mega, Google Drive. Durante décadas, Lefty (Bill Pullman) ha cabalgado junto a Edward Johnson (Peter Fonda), ayudándole a sobrevivir en el salvaje Oeste. Cuando Lefty es elegido para ayudar al primer senador del nuevo estado de Montana, Johnson se va a Washington y deja su rancho a Lefty, lo que despierta cierta inquietud en la señora Johnson (Kathy Baker), que duda de sus capacidades.



Titulo original The Ballad of Lefty Brown
Audio Español Latino AC3 2.0 iTUNES - Ingles AC3 5.1 BLURAY
Calidad: 1080p Resolucion: 1920x800p Formato: MKV
Encoder: CinefiloCool Peso: 3.19 GiB Duracion: 1h 51m
Subtitulos: Español Latino SRT - Ingles SRT
  • No hay video embed

La balada de Lefty Brown (2017) 1080p Latino.mkv
Format: Matroska
Format version: Version 4 / Version 2
File size : 3.19 GiB
Duration: 1 h 51 min
Overall bit rate: 4 102 kb/s
Movie name: CinemaniaHDD.Net
Encoded date: UTC 2018-10-10 05:15:44 / UTC 2018-10-10T02:07:44Z
Writing application : mkvmerge v25.0.0 ('Prog Noir') 64-bit
Writing library : libebml v1.3.6 + libmatroska v1.4.9 / Lavf57.7.2

Video
ID: 1
Format: AVC
Format/Info : Advanced Video Codec
Format profile: High@L4.1
Format settings : CABAC / 5 Ref Frames
Format settings, CABAC: Yes
Format settings, RefFrames: 5 frames
Codec ID: V_MPEG4/ISO/AVC
Duration: 1 h 51 min
Bit rate: 3 316 kb/s
Nominal bit rate: 3 500 kb/s
Width : 1 920 pixels
Height: 800 pixels
Display aspect ratio: 2.40:1
Frame rate mode : Constant
Frame rate: 23.976 (24000/1001) FPS
Color space : YUV
Chroma subsampling: 4:2:0
Bit depth : 8 bits
Scan type : Progressive
Bits/(Pixel*Frame): 0.090
Stream size : 2.58 GiB (81%)
Title : HD1080p [Bluray]
Writing library : x264 core 155 r2893 b00bcaf
Encoding settings : cabac=1 / ref=5 / deblock=1:0:0 / analyse=0x3:0x113 / me=hex / subme=8 / psy=1 / psy_rd=1.00:0.00 / mixed_ref=1 / me_range=16 / chroma_me=1 / trellis=2 / 8x8dct=1 / cqm=0 / deadzone=21,11 / fast_pskip=1 / chroma_qp_offset=-2 / threads=25 / lookahead_threads=4 / sliced_threads=0 / nr=0 / decimate=1 / interlaced=0 / bluray_compat=0 / constrained_intra=0 / bframes=3 / b_pyramid=2 / b_adapt=1 / b_bias=0 / direct=3 / weightb=1 / open_gop=0 / weightp=2 / keyint=240 / keyint_min=24 / scenecut=40 / intra_refresh=0 / rc_lookahead=50 / rc=abr / mbtree=1 / bitrate=3500 / ratetol=1.0 / qcomp=0.60 / qpmin=0 / qpmax=69 / qpstep=4 / vbv_maxrate=62500 / vbv_bufsize=78125 / nal_hrd=none / filler=0 / ip_ratio=1.40 / aq=1:1.00
Default : Yes
Forced: No
Color range : Limited
Color primaries : BT.709
Transfer characteristics: BT.709
Matrix coefficients : BT.709
Statistics Tags Issue : mkvmerge v25.0.0 ('Prog Noir') 64-bit 2018-10-10 05:15:44 / mkvmerge v25.0.0 ('Prog Noir') 64-bit 2018-10-10 05:15:44 / UTC 2018-10-10T02:07:44Z
FromStats_BitRate : 3395949
FromStats_Duration: 01:51:14.627000000
FromStats_FrameCount: 160031
FromStats_StreamSize: 2833336797

Audio #1
ID: 2
Format: AC-3
Format/Info : Audio Coding 3
Format settings, Endianness : Big
Codec ID: A_AC3
Duration: 1 h 51 min
Bit rate mode : Constant
Bit rate: 256 kb/s
Channel(s): 2 channels
Channel positions : Front: L R
Sampling rate : 48.0 kHz
Frame rate: 31.250 FPS (1536 SPF)
Bit depth : 16 bits
Compression mode: Lossy
Delay relative to video : -5 ms
Stream size : 204 MiB (6%)
Title : AC3_2.0_Itunes_Esp
Language: Spanish
Service kind: Complete Main
Default : Yes
Forced: No
Statistics Tags Issue : mkvmerge v25.0.0 ('Prog Noir') 64-bit 2018-10-10 05:15:44 / mkvmerge v25.0.0 ('Prog Noir') 64-bit 2018-10-10 05:15:44 / UTC 2018-10-10T02:07:44Z
FromStats_BitRate : 256000
FromStats_Duration: 01:51:14.688000000
FromStats_FrameCount: 208584
FromStats_StreamSize: 213590016

Audio #2
ID: 3
Format: AC-3
Format/Info : Audio Coding 3
Format settings, Endianness : Big
Codec ID: A_AC3
Duration: 1 h 51 min
Bit rate mode : Constant
Bit rate: 448 kb/s
Channel(s): 6 channels
Channel positions : Front: L C R, Side: L R, LFE
Sampling rate : 48.0 kHz
Frame rate: 31.250 FPS (1536 SPF)
Bit depth : 16 bits
Compression mode: Lossy
Stream size : 356 MiB (11%)
Title : AC3_5.1_Bluray_Eng
Language: English
Service kind: Complete Main
Default : No
Forced: No
Statistics Tags Issue : mkvmerge v25.0.0 ('Prog Noir') 64-bit 2018-10-10 05:15:44 / mkvmerge v25.0.0 ('Prog Noir') 64-bit 2018-10-10 05:15:44 / UTC 2018-10-10T02:07:44Z
FromStats_BitRate : 448000
FromStats_Duration: 01:51:14.656000000
FromStats_FrameCount: 208583
FromStats_StreamSize: 373780736

Text #1
ID: 4
Format: UTF-8
Codec ID: S_TEXT/UTF8
Codec ID/Info : UTF-8 Plain Text
Title : Sub_Forzados
Language: Spanish
Default : Yes
Forced: Yes
Statistics Tags Issue : mkvmerge v25.0.0 ('Prog Noir') 64-bit 2018-10-10 05:15:44 / mkvmerge v25.0.0 ('Prog Noir') 64-bit 2018-10-10 05:15:44 / UTC 2018-10-10T02:07:44Z
FromStats_BitRate : 0
FromStats_Duration: 01:20:19.602000000
FromStats_FrameCount: 4
FromStats_StreamSize: 139

Text #2
ID: 5
Format: UTF-8
Codec ID: S_TEXT/UTF8
Codec ID/Info : UTF-8 Plain Text
Title : Sub_Esp
Language: Spanish
Default : No
Forced: No
Statistics Tags Issue : mkvmerge v25.0.0 ('Prog Noir') 64-bit 2018-10-10 05:15:44 / mkvmerge v25.0.0 ('Prog Noir') 64-bit 2018-10-10 05:15:44 / UTC 2018-10-10T02:07:44Z
FromStats_BitRate : 38
FromStats_Duration: 01:50:32.233000000
FromStats_FrameCount: 1071
FromStats_StreamSize: 32275

Text #3
ID: 6
Format: UTF-8
Codec ID: S_TEXT/UTF8
Codec ID/Info : UTF-8 Plain Text
Title : Sub_Eng
Language: English
Default : No
Forced: No
Statistics Tags Issue : mkvmerge v25.0.0 ('Prog Noir') 64-bit 2018-10-10 05:15:44 / mkvmerge v25.0.0 ('Prog Noir') 64-bit 2018-10-10 05:15:44 / UTC 2018-10-10T02:07:44Z
FromStats_BitRate : 42
FromStats_Duration: 01:43:44.287000000
FromStats_FrameCount: 1027
FromStats_StreamSize: 33397

Menu
00:00:00.000: :Chapter 1
00:07:19.981: :Chapter 2
00:17:19.872: :Chapter 3
00:26:12.279: :Chapter 4
00:37:32.250: :Chapter 5
00:47:01.444: :Chapter 6
00:54:11.623: :Chapter 7
01:01:58.924: :Chapter 8
01:09:31.042: :Chapter 9
01:18:51.018: :Chapter 10
01:25:03.348: :Chapter 11
01:33:01.993: :Chapter 12
01:44:44.612: :Chapter 13

Download Links

CONTRASEÑA PARA DESCOMPRIMIR

APORTES NUEVOS

cinemaniahdd.com

APORTES VIEJOS

CinemaniaHD.org

COMPRA O RENUEVA TU PREMIUM DE UPLOADED DESDE EL SIGUIENTE LINK:

http://ul.to/ref/9821430

SI GUSTAS PUEDES SEGUIRNOS EN LAS REDES SOCIALES

Facebook

Twitter

Post Relacionados