La Caida de Berlin (2017) 1080p Latino

Descargar La Caida de Berlin (2017) 1080p Latino Google Drive y por  Berlin Falling torrent Cuando Frank ofrece cortésmente a Andreas un paseo en coche por Berlín no es consciente de que su decisión terminará en un violento viaje entre la vida y la muerte.
Audio Latino Gracias: AVOHD



Titulo Original Berlin Falling
Año 2017-07-13
Duracion 1h 31m
Director
Reparto , , , , , ,
Productora
Genero
Titulo original Berlin Falling
Audio Español Latino AC3 2.0 DVD - Ingles AC3 5.1 BLURAY
Calidad: 1080p Resolucion: 1920x804 Formato: MKV
Encoder: chesse92 Peso: 2.59 GiB Duracion: 1h 31m
Subtitulos: Español Latino SRT
  • No hay video embed

Berlin Falling (2017) 1080p Latino.mkv
Format: Matroska
Format version: Version 4
File size : 2.59 GiB
Duration: 1 h 31 min
Overall bit rate: 4 057 kb/s
Movie name: CinemaniaHDD.net
Encoded date: UTC 2018-12-04 04:20:49 / UTC 2018-12-03T21:06:14Z
Writing application : mkvmerge v28.2.0 ('The Awakening') 64-bit
Writing library : libebml v1.3.6 + libmatroska v1.4.9 / Lavf57.7.2

Video
ID: 1
Format: AVC
Format/Info : Advanced Video Codec
Format profile: High@L4.1
Format settings : CABAC / 5 Ref Frames
Format settings, CABAC: Yes
Format settings, ReFrames : 5 frames
Codec ID: V_MPEG4/ISO/AVC
Duration: 1 h 31 min
Bit rate: 3 500 kb/s
Width : 1 920 pixels
Height: 804 pixels
Display aspect ratio: 2.40:1
Frame rate mode : Constant
Frame rate: 24.000 FPS
Color space : YUV
Chroma subsampling: 4:2:0
Bit depth : 8 bits
Scan type : Progressive
Bits/(Pixel*Frame): 0.094
Stream size : 2.19 GiB (84%)
Writing library : x264 core 155 r2893 b00bcaf
Encoding settings : cabac=1 / ref=5 / deblock=1:0:0 / analyse=0x3:0x113 / me=hex / subme=8 / psy=1 / psy_rd=1.00:0.00 / mixed_ref=1 / me_range=16 / chroma_me=1 / trellis=2 / 8x8dct=1 / cqm=0 / deadzone=21,11 / fast_pskip=1 / chroma_qp_offset=-2 / threads=25 / lookahead_threads=4 / sliced_threads=0 / nr=0 / decimate=1 / interlaced=0 / bluray_compat=0 / constrained_intra=0 / bframes=3 / b_pyramid=2 / b_adapt=1 / b_bias=0 / direct=3 / weightb=1 / open_gop=0 / weightp=2 / keyint=240 / keyint_min=24 / scenecut=40 / intra_refresh=0 / rc_lookahead=50 / rc=abr / mbtree=1 / bitrate=3500 / ratetol=1.0 / qcomp=0.60 / qpmin=0 / qpmax=69 / qpstep=4 / vbv_maxrate=62500 / vbv_bufsize=78125 / nal_hrd=none / filler=0 / ip_ratio=1.40 / aq=1:1.00
Default : Yes
Forced: No
Color range : Limited
Color primaries : BT.709
Transfer characteristics: BT.709
Matrix coefficients : BT.709

Audio #1
ID: 2
Format: AC-3
Format/Info : Audio Coding 3
Commercial name : Dolby Digital
Codec ID: A_AC3
Duration: 1 h 27 min
Bit rate mode : Constant
Bit rate: 192 kb/s
Channel(s): 2 channels
Channel layout: L R
Sampling rate : 48.0 kHz
Frame rate: 31.250 FPS (1536 SPF)
Bit depth : 16 bits
Compression mode: Lossy
Delay relative to video : -5 ms
Stream size : 120 MiB (5%)
Language: Spanish
Service kind: Complete Main
Default : Yes
Forced: No

Audio #2
ID: 3
Format: AC-3
Format/Info : Audio Coding 3
Commercial name : Dolby Digital
Codec ID: A_AC3
Duration: 1 h 31 min
Bit rate mode : Constant
Bit rate: 448 kb/s
Channel(s): 6 channels
Channel layout: L R C LFE Ls Rs
Sampling rate : 48.0 kHz
Frame rate: 31.250 FPS (1536 SPF)
Bit depth : 16 bits
Compression mode: Lossy
Stream size : 293 MiB (11%)
Title : Surround
Language: German
Service kind: Complete Main
Default : No
Forced: No

Text
ID: 4
Format: UTF-8
Codec ID: S_TEXT/UTF8
Codec ID/Info : UTF-8 Plain Text
Duration: 1 h 24 min
Bit rate: 37 b/s
Count of elements : 847
Stream size : 23.4 KiB (0%)
Language: Spanish
Default : Yes
Forced: No

Menu
00:00:00.000: :00:00:00.000
00:05:00.083: :00:05:00.000
00:10:00.125: :00:10:00.000
00:15:00.125: :00:15:00.000
00:20:00.042: :00:20:00.000
00:25:00.042: :00:25:00.000
00:30:00.125: :00:30:00.000
00:35:00.000: :00:35:00.000
00:40:00.000: :00:40:00.000
00:45:00.125: :00:45:00.000
00:50:00.083: :00:50:00.000
00:55:00.000: :00:55:00.000
01:00:00.083: :01:00:00.000
01:05:00.125: :01:05:00.000
01:10:00.000: :01:10:00.000
01:15:00.000: :01:15:00.000
01:20:00.000: :01:20:00.000
01:25:00.000: :01:25:00.000
01:30:00.000: :01:30:00.000

Download Links

CONTRASEÑA PARA DESCOMPRIMIR

APORTES NUEVOS

cinemaniahdd.com

APORTES VIEJOS

CinemaniaHD.org

COMPRA O RENUEVA TU PREMIUM DE UPLOADED DESDE EL SIGUIENTE LINK:

http://ul.to/ref/9821430

SI GUSTAS PUEDES SEGUIRNOS EN LAS REDES SOCIALES

Facebook

Twitter

Post Relacionados