La carrera de la muerte 3: Inferno (2013) 1080p Latino

Death Race 3 : Inferno (2013) 1080p Latino. Mega, Google Drive. Condenado por asesinar policías, Carl Lucas -también conocido como Frankenstein- es el nuevo piloto estrella de Death Race, una carrera mortal en el que se juega salir libre de prisión junto a su equipo de mecánicos. Por ello Lucas se sumerge en un nuevo concurso más cruel que cualquier cosa que haya experimentado antes. Se enfrentará con los adversarios más despiadados en una carrera en el desierto de Kalahari en el Sur de África…



Titulo original Death Race: Inferno
Audio Español Latino AC3 5.1 BLURAY - Ingles AC3 5.1 BLURAY
Calidad: 1080p Resolucion: 1920x1080p Formato: MKV
Encoder: CinefiloCool Peso: 3.22 GiB Duracion: 1h 45m
Subtitulos: Español Latino SRT - Ingles SRT
  • No hay video embed

Death Race 3 - Inferno (2013) 1080p Latino.mkv
Format: Matroska
Format version: Version 4 / Version 2
File size : 3.23 GiB
Duration: 1 h 45 min
Overall bit rate: 4 395 kb/s
Movie name: CinemaniaHDD.Net
Encoded date: UTC 2018-10-06 16:05:35 / UTC 2018-10-06T08:23:00Z
Writing application : mkvmerge v25.0.0 ('Prog Noir') 64-bit
Writing library : libebml v1.3.6 + libmatroska v1.4.9 / Lavf57.7.2

Video
ID: 1
Format: AVC
Format/Info : Advanced Video Codec
Format profile: High@L4.1
Format settings : CABAC / 4 Ref Frames
Format settings, CABAC: Yes
Format settings, RefFrames: 4 frames
Codec ID: V_MPEG4/ISO/AVC
Duration: 1 h 45 min
Bit rate: 3 500 kb/s
Width : 1 920 pixels
Height: 1 080 pixels
Display aspect ratio: 16:9
Frame rate mode : Constant
Frame rate: 23.976 (24000/1001) FPS
Color space : YUV
Chroma subsampling: 4:2:0
Bit depth : 8 bits
Scan type : Progressive
Bits/(Pixel*Frame): 0.070
Stream size : 2.51 GiB (78%)
Title : HD1080p [Bluray]
Writing library : x264 core 155 r2893 b00bcaf
Encoding settings : cabac=1 / ref=4 / deblock=1:0:0 / analyse=0x3:0x133 / me=umh / subme=9 / psy=1 / psy_rd=1.00:0.00 / mixed_ref=1 / me_range=16 / chroma_me=1 / trellis=2 / 8x8dct=1 / cqm=0 / deadzone=21,11 / fast_pskip=1 / chroma_qp_offset=-2 / threads=34 / lookahead_threads=2 / sliced_threads=0 / nr=0 / decimate=1 / interlaced=0 / bluray_compat=0 / constrained_intra=0 / bframes=3 / b_pyramid=2 / b_adapt=2 / b_bias=0 / direct=3 / weightb=1 / open_gop=0 / weightp=2 / keyint=240 / keyint_min=24 / scenecut=40 / intra_refresh=0 / rc_lookahead=60 / rc=2pass / mbtree=1 / bitrate=3500 / ratetol=1.0 / qcomp=0.60 / qpmin=0 / qpmax=69 / qpstep=4 / cplxblur=20.0 / qblur=0.5 / vbv_maxrate=62500 / vbv_bufsize=78125 / nal_hrd=none / filler=0 / ip_ratio=1.40 / aq=1:1.00
Default : Yes
Forced: No
Color range : Limited
Color primaries : BT.709
Transfer characteristics: BT.709
Matrix coefficients : BT.709
Statistics Tags Issue : mkvmerge v25.0.0 ('Prog Noir') 64-bit 2018-10-06 16:05:35 / mkvmerge v25.0.0 ('Prog Noir') 64-bit 2018-10-06 16:05:35 / UTC 2018-10-06T08:23:00Z
FromStats_BitRate : 3496986
FromStats_Duration: 01:45:12.139000000
FromStats_FrameCount: 151340
FromStats_StreamSize: 2759182868

Audio #1
ID: 2
Format: AC-3
Format/Info : Audio Coding 3
Format settings, Endianness : Big
Codec ID: A_AC3
Duration: 1 h 45 min
Bit rate mode : Constant
Bit rate: 448 kb/s
Channel(s): 6 channels
Channel positions : Front: L C R, Side: L R, LFE
Sampling rate : 48.0 kHz
Frame rate: 31.250 FPS (1536 SPF)
Bit depth : 16 bits
Compression mode: Lossy
Delay relative to video : -5 ms
Stream size : 337 MiB (10%)
Title : AC3_5.1_Bluray_Esp
Language: Spanish
Service kind: Complete Main
Default : Yes
Forced: Yes
Statistics Tags Issue : mkvmerge v25.0.0 ('Prog Noir') 64-bit 2018-10-06 16:05:35 / mkvmerge v25.0.0 ('Prog Noir') 64-bit 2018-10-06 16:05:35 / UTC 2018-10-06T08:23:00Z
FromStats_BitRate : 448000
FromStats_Duration: 01:45:12.192000000
FromStats_FrameCount: 197256
FromStats_StreamSize: 353482752

Audio #2
ID: 3
Format: AC-3
Format/Info : Audio Coding 3
Format settings, Endianness : Big
Codec ID: A_AC3
Duration: 1 h 45 min
Bit rate mode : Constant
Bit rate: 448 kb/s
Channel(s): 6 channels
Channel positions : Front: L C R, Side: L R, LFE
Sampling rate : 48.0 kHz
Frame rate: 31.250 FPS (1536 SPF)
Bit depth : 16 bits
Compression mode: Lossy
Stream size : 337 MiB (10%)
Title : AC3_5.1_Bluray_Eng
Language: English
Service kind: Complete Main
Default : No
Forced: No
Statistics Tags Issue : mkvmerge v25.0.0 ('Prog Noir') 64-bit 2018-10-06 16:05:35 / mkvmerge v25.0.0 ('Prog Noir') 64-bit 2018-10-06 16:05:35 / UTC 2018-10-06T08:23:00Z
FromStats_BitRate : 448000
FromStats_Duration: 01:45:12.096000000
FromStats_FrameCount: 197253
FromStats_StreamSize: 353477376

Text #1
ID: 4
Format: UTF-8
Codec ID: S_TEXT/UTF8
Codec ID/Info : UTF-8 Plain Text
Title : Sub_Esp
Language: Spanish
Default : Yes
Forced: No
Statistics Tags Issue : mkvmerge v25.0.0 ('Prog Noir') 64-bit 2018-10-06 16:05:35 / mkvmerge v25.0.0 ('Prog Noir') 64-bit 2018-10-06 16:05:35 / UTC 2018-10-06T08:23:00Z
FromStats_BitRate : 47
FromStats_Duration: 01:39:02.997000000
FromStats_FrameCount: 1017
FromStats_StreamSize: 34976

Text #2
ID: 5
Format: UTF-8
Codec ID: S_TEXT/UTF8
Codec ID/Info : UTF-8 Plain Text
Title : Sub_Eng
Language: English
Default : No
Forced: No
Statistics Tags Issue : mkvmerge v25.0.0 ('Prog Noir') 64-bit 2018-10-06 16:05:35 / mkvmerge v25.0.0 ('Prog Noir') 64-bit 2018-10-06 16:05:35 / UTC 2018-10-06T08:23:00Z
FromStats_BitRate : 52
FromStats_Duration: 01:38:49.289000000
FromStats_FrameCount: 1207
FromStats_StreamSize: 39181

Menu
00:00:00.000: :00:00:00.000
00:06:33.310: :00:06:33.310
00:09:58.640: :00:09:58.389
00:14:00.173: :00:14:00.131
00:20:48.497: :00:20:48.330
00:25:09.341: :00:25:09.216
00:28:37.382: :00:28:37.382
00:34:01.790: :00:34:01.790
00:40:18.875: :00:40:18.875
00:44:49.645: :00:44:49.645
00:49:13.534: :00:49:13.492
00:55:55.394: :00:55:55.394
01:01:29.561: :01:01:29.394
01:06:34.574: :01:06:34.574
01:11:39.045: :01:11:39.045
01:18:06.891: :01:18:06.890
01:23:06.398: :01:23:06.398
01:28:36.102: :01:28:36.102
01:32:48.897: :01:32:48.855
01:39:17.410: :01:39:17.410

Download Links

CONTRASEÑA PARA DESCOMPRIMIR

APORTES NUEVOS

cinemaniahdd.com

APORTES VIEJOS

CinemaniaHD.org

COMPRA O RENUEVA TU PREMIUM DE UPLOADED DESDE EL SIGUIENTE LINK:

http://ul.to/ref/9821430

SI GUSTAS PUEDES SEGUIRNOS EN LAS REDES SOCIALES

Facebook

Twitter

Post Relacionados