La casa con un reloj en sus paredes (2018) Full 1080p Latino

Descargar La casa con un reloj en sus paredes (2018) Full 1080p Latino, Mega, Google Drive, Torrent. La historia gira en torno a la vida de un chico huérfano de nombre Lewis Barnavelt que se topa con un mundo hecho de pasadizos que se hallaba escondido en la vieja casa de su tía. Producida por Steven Spielberg y dirigida por Eli Roth, “La casa del reloj en la pared” es una mágica aventura para toda la familia protagonizada por Jack Black, Cate Blanchett, Kyle McLachlan, Colleen Camp y el pequeño Owen Vaccaro. Con guión de Eric Kripke, “La casa del reloj en la pared” está basada en el clásico infantil de 1973 escrito por John Bellairs e ilustrado por Edward Gorey.
Audio Español Latino DTS-HD 7.1 Bluray – Ingles Dolby True-HD 7.1 Bluray



Titulo original The House with a Clock in Its Walls
Audio Se especifica abajo de la Sinopsis
Calidad: Full 1080p Resolucion: 1920x1080p Formato: MKV
Encoder: CinefiloCool Peso: 7.03 GiB Duracion: 1h 46m
Subtitulos: Español Latino PGS - Ingles PGS
  • No hay video embed

La Casa Con Un Reloj en sus Paredes (2018) Full 1080p Latino.mkv
Format: Matroska
Format version: Version 4
File size : 7.03 GiB
Duration: 1 h 45 min
Overall bit rate mode : Variable
Overall bit rate: 9 575 kb/s
Movie name: CinemaniaHDD.Net
Encoded date: UTC 2018-12-16 04:23:48
Writing application : mkvmerge v28.2.0 ('The Awakening') 64-bit
Writing library : libebml v1.3.6 + libmatroska v1.4.9

Video
ID: 1
Format: AVC
Format/Info : Advanced Video Codec
Format profile: High@L4.1
Format settings : CABAC / 4 Ref Frames
Format settings, CABAC: Yes
Format settings, ReFrames : 4 frames
Codec ID: V_MPEG4/ISO/AVC
Duration: 1 h 45 min
Bit rate: 3 162 kb/s
Width : 1 920 pixels
Height: 1 080 pixels
Display aspect ratio: 16:9
Frame rate mode : Constant
Frame rate: 23.976 (24000/1001) FPS
Color space : YUV
Chroma subsampling: 4:2:0
Bit depth : 8 bits
Scan type : Progressive
Bits/(Pixel*Frame): 0.064
Stream size : 2.32 GiB (33%)
Title : Full HD1080p [Bluray]
Writing library : x264 core 155 r2901 7d0ff22
Encoding settings : cabac=1 / ref=4 / deblock=1:0:0 / analyse=0x3:0x133 / me=esa / subme=10 / psy=1 / psy_rd=1.00:0.00 / mixed_ref=1 / me_range=24 / chroma_me=1 / trellis=2 / 8x8dct=1 / cqm=0 / deadzone=21,11 / fast_pskip=1 / chroma_qp_offset=-2 / threads=34 / lookahead_threads=5 / sliced_threads=0 / nr=0 / decimate=1 / interlaced=0 / bluray_compat=0 / constrained_intra=0 / bframes=8 / b_pyramid=2 / b_adapt=2 / b_bias=0 / direct=3 / weightb=1 / open_gop=0 / weightp=2 / keyint=240 / keyint_min=24 / scenecut=40 / intra_refresh=0 / rc_lookahead=60 / rc=crf / mbtree=1 / crf=20.0 / qcomp=0.60 / qpmin=0 / qpmax=69 / qpstep=4 / vbv_maxrate=62500 / vbv_bufsize=78125 / crf_max=0.0 / nal_hrd=none / filler=0 / ip_ratio=1.40 / aq=1:1.00
Default : Yes
Forced: Yes
Color range : Limited
Color primaries : BT.709
Transfer characteristics: BT.709
Matrix coefficients : BT.709

Audio #1
ID: 2
Format: DTS XBR
Format/Info : Digital Theater Systems
Commercial name : DTS-HD High Resolution Audio
Codec ID: A_DTS
Duration: 1 h 45 min
Bit rate mode : Constant
Bit rate: 2 046 kb/s
Channel(s): 8 channels
Channel layout: C L R LFE Lb Rb Lss Rss
Sampling rate : 48.0 kHz
Frame rate: 93.750 FPS (512 SPF)
Bit depth : 24 bits
Compression mode: Lossy
Stream size : 1.50 GiB (21%)
Title : DTSHD_7.1_Bluray_Esp
Language: Spanish
Default : Yes
Forced: Yes

Audio #2
ID: 3
Format: MLP FBA 16-ch
Format/Info : Meridian Lossless Packing FBA with 16-channel presentation
Commercial name : Dolby TrueHD with Dolby Atmos
Codec ID: A_TRUEHD
Duration: 1 h 45 min
Bit rate mode : Variable
Bit rate: 4 274 kb/s
Maximum bit rate: 7 884 kb/s
Channel(s): 8 channels
Channel layout: L R C LFE Ls Rs Lb Rb
Sampling rate : 48.0 kHz
Frame rate: 1 200.000 FPS (40 SPF)
Compression mode: Lossless
Stream size : 3.14 GiB (45%)
Title : TrueHD_7.1_Bluray_Eng
Language: English
Default : No
Forced: No
Number of dynamic objects : 11
Bed channel count : 1 channel
Bed channel configuration : LFE

Text #1
ID: 4
Format: PGS
Muxing mode : zlib
Codec ID: S_HDMV/PGS
Codec ID/Info : Picture based subtitle format used on BDs/HD-DVDs
Duration: 1 h 23 min
Bit rate: 722 b/s
Count of elements : 46
Stream size : 443 KiB (0%)
Title : Sub_Forzados [PGS]
Language: Spanish
Default : Yes
Forced: Yes

Text #2
ID: 5
Format: PGS
Muxing mode : zlib
Codec ID: S_HDMV/PGS
Codec ID/Info : Picture based subtitle format used on BDs/HD-DVDs
Duration: 1 h 44 min
Bit rate: 31.6 kb/s
Count of elements : 2510
Stream size : 23.5 MiB (0%)
Title : Sub_Esp [PGS]
Language: Spanish
Default : No
Forced: No

Text #3
ID: 6
Format: PGS
Muxing mode : zlib
Codec ID: S_HDMV/PGS
Codec ID/Info : Picture based subtitle format used on BDs/HD-DVDs
Duration: 1 h 39 min
Bit rate: 46.2 kb/s
Count of elements : 3259
Stream size : 32.8 MiB (0%)
Title : Sub_Eng [PGS]
Language: English
Default : No
Forced: No

Menu
00:00:00.000: :Chapter 1
00:05:32.707: :Chapter 2
00:11:59.636: :Chapter 3
00:16:41.792: :Chapter 4
00:22:41.986: :Chapter 5
00:27:43.537: :Chapter 6
00:31:11.495: :Chapter 7
00:34:58.346: :Chapter 8
00:39:05.844: :Chapter 9
00:44:35.423: :Chapter 10
00:49:56.035: :Chapter 11
00:53:44.221: :Chapter 12
00:58:07.734: :Chapter 13
01:05:02.065: :Chapter 14
01:11:44.842: :Chapter 15
01:15:59.638: :Chapter 16
01:21:33.931: :Chapter 17
01:26:39.986: :Chapter 18
01:33:34.651: :Chapter 19
01:39:03.938: :Chapter 20

Download Links

CONTRASEÑA PARA DESCOMPRIMIR

APORTES NUEVOS

cinemaniahdd.com

APORTES VIEJOS

CinemaniaHD.org

COMPRA O RENUEVA TU PREMIUM DE UPLOADED DESDE EL SIGUIENTE LINK:

http://ul.to/ref/9821430

SI GUSTAS PUEDES SEGUIRNOS EN LAS REDES SOCIALES

Facebook

Twitter

Post Relacionados