La chica del tren (2016) 1080p Latino

Rachel Watson (Emily Blunt) es una mujer recién divorciada, y con ciertos problemas con la bebida. Cada día, toma el tren para ir trabajar a Nueva York, y cada día el tren pasa por su antigua casa. En esa casa ahora vive su marido con su nueva esposa y su hijo. Para no ahogarse en sus propias penas, Rachel decide concentrarse en mirar a una pareja, Megan (Haley Bennett) y Scott Hipwell (Luke Evans), que viven unas casas más abajo de la que era la suya. Comienza entonces a crear en su cabeza una maravillosa vida de ensueño sobre esta familia aparentemente perfecta. Todo cambia cuando una mañana Rachel, desde la ventana del tren, es testigo de un impactante suceso. Será entonces cuando se vea envuelta en un misterioso y desconcertante caso.



Titulo original The Girl on the Train
Audio Español Latino AC3 5.1 BLURAY - Ingles AC3 5.1 BLURAY
Calidad: 1080p Resolucion: 1920x1040 Formato: MKV
Encoder: Lpratto Peso: 3.31 GB Duracion: 2h 0m
Subtitulos: Español Latino SRT- FORZADOS SRT
  • No hay video embed

Format: Matroska
Format version: Version 4 / Version 2
File size : 3.32 GiB
Duration: 1 h 52 min
Overall bit rate: 4 239 kb/s
Movie name: CinemaniaHDD.com
Encoded date: UTC 2018-03-04 18:51:56
Writing application : mkvmerge v15.0.0 ('Duel with the Devil') 64-bit
Writing library : libebml v1.3.5 + libmatroska v1.4.5
 
Video
ID: 1
Format: AVC
Format/Info : Advanced Video Codec
Format profile: High@L4.1
Format settings, CABAC: Yes
Format settings, RefFrames: 5 frames
Codec ID: V_MPEG4/ISO/AVC
Duration: 1 h 52 min
Bit rate: 3 500 kb/s
Width : 1 920 pixels
Height: 1 040 pixels
Display aspect ratio: 1.85:1
Frame rate mode : Constant
Frame rate: 23.976 FPS
Color space : YUV
Chroma subsampling: 4:2:0
Bit depth : 8 bits
Scan type : Progressive
Bits/(Pixel*Frame): 0.073
Stream size : 2.72 GiB (82%)
Writing library : x264 core 155 r2901
Encoding settings : cabac=1 / ref=5 / deblock=1:0:0 / analyse=0x3:0x133 / me=umh / subme=8 / psy=1 / psy_rd=1.00:0.00 / mixed_ref=0 / me_range=16 / chroma_me=1 / trellis=1 / 8x8dct=1 / cqm=0 / deadzone=21,11 / fast_pskip=1 / chroma_qp_offset=-2 / threads=32 / lookahead_threads=5 / sliced_threads=0 / nr=0 / decimate=1 / interlaced=0 / bluray_compat=0 / constrained_intra=0 / bframes=3 / b_pyramid=0 / b_adapt=2 / b_bias=0 / direct=3 / weightb=1 / open_gop=0 / weightp=2 / keyint=239 / keyint_min=23 / scenecut=40 / intra_refresh=0 / rc_lookahead=50 / rc=abr / mbtree=1 / bitrate=3500 / ratetol=1.0 / qcomp=0.60 / qpmin=10 / qpmax=69 / qpstep=4 / vbv_maxrate=4000 / vbv_bufsize=24000 / nal_hrd=none / filler=0 / ip_ratio=1.40 / aq=3:1.00
Language: English
Default : Yes
Forced: No
 
Audio #1
ID: 4
Format: AC-3
Format/Info : Audio Coding 3
Format settings, Endianness : Big
Codec ID: A_AC3
Duration: 1 h 52 min
Bit rate mode : Constant
Bit rate: 384 kb/s
Channel(s): 6 channels
Channel positions : Front: L C R, Side: L R, LFE
Sampling rate : 48.0 kHz
Frame rate: 31.250 FPS (1536 SPF)
Bit depth : 16 bits
Compression mode: Lossy
Stream size : 308 MiB (9%)
Language: Spanish
Service kind: Complete Main
Default : Yes
Forced: No
 
Audio #2
ID: 5
Format: AC-3
Format/Info : Audio Coding 3
Format settings, Endianness : Big
Codec ID: A_AC3
Duration: 1 h 52 min
Bit rate mode : Constant
Bit rate: 384 kb/s
Channel(s): 6 channels
Channel positions : Front: L C R, Side: L R, LFE
Sampling rate : 48.0 kHz
Frame rate: 31.250 FPS (1536 SPF)
Bit depth : 16 bits
Compression mode: Lossy
Stream size : 308 MiB (9%)
Language: English
Service kind: Complete Main
Default : No
Forced: No
 
Text #1
ID: 2
Format: UTF-8
Codec ID: S_TEXT/UTF8
Codec ID/Info : UTF-8 Plain Text
Duration: 1 h 15 min
Bit rate: 0 b/s
Count of elements : 10
Stream size : 229 Bytes (0%)
Title : forzados
Language: Spanish
Default : Yes
Forced: No
 
Text #2
ID: 3
Format: UTF-8
Codec ID: S_TEXT/UTF8
Codec ID/Info : UTF-8 Plain Text
Duration: 1 h 44 min
Bit rate: 43 b/s
Count of elements : 1168
Stream size : 33.6 KiB (0%)
Title : completos
Language: Spanish
Default : No
Forced: No

Download Links

CONTRASEÑA PARA DESCOMPRIMIR

APORTES NUEVOS

cinemaniahdd.com

APORTES VIEJOS

CinemaniaHD.org

COMPRA O RENUEVA TU PREMIUM DE UPLOADED DESDE EL SIGUIENTE LINK:

http://ul.to/ref/9821430

SI GUSTAS PUEDES SEGUIRNOS EN LAS REDES SOCIALES

Facebook

Twitter

Post Relacionados