La cumbre escarlata (2015) 1080p FULL HD Dual Latino

A raíz de una tragedia familiar, un autor aspirante se debate entre el amor por su amigo de la infancia y la tentación de un forastero misterioso. Tratando de escapar de los fantasmas de su pasado, ella se deja llevar a una casa que respira, sangra – y recuerda.



Titulo Original Crimson Peak
Año 2015
Duracion 119 min.
Director
Reparto Mia Wasikowska, Jessica Chastain, Tom Hiddleston, Charlie Hunnam, Doug Jones, Javier Botet, Jim Beaver, Burn Gorman, Leslie Hope, Kimberly-Sue Murray, Emily Coutts, Gillian Ferrier, Matia Jackett, Martin Julien
Productora Mia Wasikowska, Jessica Chastain, Tom Hiddleston, Charlie Hunnam, Doug Jones, Javier Botet, Jim Beaver, Burn Gorman, Leslie Hope, Kimberly-Sue Murray, Emily Coutts, Gillian Ferrier, Matia Jackett, Martin Julien
Genero
Titulo original Crimson Peak (2015) 1080p FULL HD Dual Latino
Audio Español Latino [DTS 5.1 BD] - Inglés [DTS 5.1 BD]
Calidad: FULL HD 1080p Resolucion: 1920x1080p Formato: MKV
Encoder: ADDKiQ Peso: 8.5 GB Duracion: 119 min.
Subtitulos: Español Latino [.SRT + .PGS]
  • No hay video embed

General
Unique ID : 200158906217896538690007191515964256034 (0x969533FF274FADC1B16395BAFA3A2F22)
Complete name : P:\Video\Video\CRIMSONPEAK_NA\La cumbre escarlata cinemaniahdd.com.mkv
Format : Matroska
Format version : Version 2
File size : 8.53 GiB
Duration : 1h 58mn
Overall bit rate : 10.3 Mbps
Movie name : CRIMSON_PEAK.Title800
Encoded date : UTC 2016-01-29 12:30:58
Writing application : DVDFab 9.2.2.4
Writing library : libebml v0.7.8 + libmatroska v0.8.1

Video
ID : 1
Format : AVC
Format/Info : Advanced Video Codec
Format profile : High@L4.1
Format settings, CABAC : Yes
Format settings, ReFrames : 2 frames
Codec ID : V_MPEG4/ISO/AVC
Duration : 1h 58mn
Bit rate : 7 955 Kbps
Width : 1 920 pixels
Height : 1 080 pixels
Display aspect ratio : 16:9
Frame rate mode : Constant
Frame rate : 23.976 (24000/1001) fps
Color space : YUV
Chroma subsampling : 4:2:0
Bit depth : 8 bits
Scan type : Progressive
Bits/(Pixel*Frame) : 0.160
Stream size : 6.47 GiB (76%)
Writing library : x264 core 142
Encoding settings : cabac=1 / ref=1 / deblock=1:-1:-1 / analyse=0x3:0 / me=hex / subme=5 / psy=0 / mixed_ref=0 / me_range=16 / chroma_me=1 / trellis=0 / 8x8dct=1 / cqm=0 / deadzone=21,11 / fast_pskip=1 / chroma_qp_offset=0 / threads=24 / lookahead_threads=6 / sliced_threads=0 / nr=0 / decimate=1 / interlaced=0 / bluray_compat=0 / constrained_intra=0 / bframes=2 / b_pyramid=0 / b_adapt=1 / b_bias=0 / direct=1 / weightb=1 / open_gop=0 / weightp=0 / keyint=24 / keyint_min=13 / scenecut=40 / intra_refresh=0 / rc=2pass / mbtree=0 / bitrate=7955 / ratetol=1.0 / qcomp=0.60 / qpmin=0 / qpmax=69 / qpstep=4 / cplxblur=20.0 / qblur=0.5 / ip_ratio=1.40 / pb_ratio=1.30 / aq=1:1.00
Default : Yes
Forced : No
Color range : Limited
Color primaries : BT.709
Transfer characteristics : BT.709
Matrix coefficients : BT.709

Audio #1
ID : 2
Format : DTS
Format/Info : Digital Theater Systems
Mode : 16
Format settings, Endianness : Big
Codec ID : A_DTS
Duration : 1h 58mn
Bit rate mode : Constant
Bit rate : 768 Kbps
Channel(s) : 6 channels
Channel positions : Front: L C R, Side: L R, LFE
Sampling rate : 48.0 KHz
Frame rate : 93.750 fps (512 spf)
Bit depth : 24 bits
Compression mode : Lossy
Stream size : 652 MiB (7%)
Language : Spanish
Default : Yes
Forced : No

Audio #2
ID : 3
Format : DTS
Format/Info : Digital Theater Systems
Mode : 16
Format settings, Endianness : Big
Codec ID : A_DTS
Duration : 1h 58mn
Bit rate mode : Constant
Bit rate : 1 509 Kbps
Channel(s) : 6 channels
Channel positions : Front: L C R, Side: L R, LFE
Sampling rate : 48.0 KHz
Frame rate : 93.750 fps (512 spf)
Bit depth : 24 bits
Compression mode : Lossy
Stream size : 1.25 GiB (15%)
Language : English
Default : No
Forced : No

Text #1
ID : 4
Format : PGS
Codec ID : S_HDMV/PGS
Codec ID/Info : Picture based subtitle format used on BDs/HD-DVDs
Language : English
Default : No
Forced : No

Text #2
ID : 5
Format : PGS
Codec ID : S_HDMV/PGS
Codec ID/Info : Picture based subtitle format used on BDs/HD-DVDs
Language : Spanish
Default : No
Forced : No

Text #3
ID : 6
Format : PGS
Codec ID : S_HDMV/PGS
Codec ID/Info : Picture based subtitle format used on BDs/HD-DVDs
Language : Spanish
Default : No
Forced : No

Text #4
ID : 7
Format : PGS
Codec ID : S_HDMV/PGS
Codec ID/Info : Picture based subtitle format used on BDs/HD-DVDs
Language : English
Default : No
Forced : No

Text #5
ID : 8
Format : PGS
Codec ID : S_HDMV/PGS
Codec ID/Info : Picture based subtitle format used on BDs/HD-DVDs
Language : Spanish
Default : No
Forced : No

Text #6
ID : 9
Format : PGS
Codec ID : S_HDMV/PGS
Codec ID/Info : Picture based subtitle format used on BDs/HD-DVDs
Language : Spanish
Default : No
Forced : No

Menu
00:00:00.000 : en:(01)00:00:00:000
00:06:02.528 : en:(02)00:06:02:528
00:11:01.202 : en:(03)00:11:01:202
00:15:29.720 : en:(04)00:15:29:720
00:21:13.105 : en:(05)00:21:13:105
00:25:52.926 : en:(06)00:25:52:926
00:31:14.664 : en:(07)00:31:14:664
00:39:26.822 : en:(08)00:39:26:822
00:45:40.612 : en:(09)00:45:40:612
00:51:57.030 : en:(10)00:51:57:030
00:56:11.576 : en:(11)00:56:11:576
01:02:05.096 : en:(12)01:02:05:096
01:08:19.929 : en:(13)01:08:19:929
01:14:24.835 : en:(14)01:14:24:835
01:20:19.105 : en:(15)01:20:19:105
01:25:54.149 : en:(16)01:25:54:149
01:30:38.891 : en:(17)01:30:38:891
01:36:09.638 : en:(18)01:36:09:638
01:43:21.069 : en:(19)01:43:21:069
01:51:24.135 : en:(20)01:51:24:135
01:58:43.491 : en:(21)01:58:43:491

Download Links

CONTRASEÑA PARA DESCOMPRIMIR

APORTES NUEVOS

cinemaniahdd.com

APORTES VIEJOS

CinemaniaHD.org

COMPRA O RENUEVA TU PREMIUM DE UPLOADED DESDE EL SIGUIENTE LINK:

http://ul.to/ref/9821430

SI GUSTAS PUEDES SEGUIRNOS EN LAS REDES SOCIALES

Facebook

Twitter

Post Relacionados