La Leyenda de Redbad (2018) WEB-DL 1080p Español

La historia de esta película holandesa se sitúa en el año 700 d.C., cuando el norte de Europa se encuentra dividido. Por un lado están los frisones, sajones y daneses y, por otro lado, los francos. Los últimos pretenden conquistar Europa usando el cristianismo como forma de aplacar a los no creyentes. En una de las zonas más destacadas del continente está el rey frisón Aldigisl. Los francos asaltan sus tierras y acaban con la vida del rey, además de arrojar al mar a Redbad. Éste naufraga y acaba en costas vikingas, quienes le acogen. Sin embargo, Redbad tiene un objetivo: regresar y recuperar aquello que le fue arrebatado.
Español AC3 2.0



Titulo original RedBad
Audio Se especifica abajo de la Sinopsis
Calidad: WEBDL Resolucion: 1908x796 Formato: MKV
Encoder: FGT Peso: 5.30 GiB Duracion: 2h 40m
Subtitulos: No
  • No hay video embed

Redbad (2018) WEB-DL 1080p Castellano.mkv
Format: Matroska
Format version: Version 4
File size : 5.30 GiB
Duration: 2 h 40 min
Overall bit rate: 4 726 kb/s
Movie name: CinemaniaHDD.net
Encoded date: UTC 2018-12-28 23:53:21
Writing application : mkvmerge v28.2.0 ('The Awakening') 64-bit
Writing library : libebml v1.3.6 + libmatroska v1.4.9
Cover : Yes
Attachments : cover_land.jpg / small_cover.jpg / small_cover_land.jpg / cover.jpg

Video
ID: 1
Format: AVC
Format/Info : Advanced Video Codec
Format profile: High@L4
Format settings : CABAC / 5 Ref Frames
Format settings, CABAC: Yes
Format settings, ReFrames : 5 frames
Codec ID: V_MPEG4/ISO/AVC
Duration: 2 h 40 min
Bit rate: 4 532 kb/s
Width : 1 908 pixels
Height: 796 pixels
Display aspect ratio: 2.40:1
Frame rate mode : Constant
Frame rate: 23.976 (24000/1001) FPS
Color space : YUV
Chroma subsampling: 4:2:0
Bit depth : 8 bits
Scan type : Progressive
Bits/(Pixel*Frame): 0.124
Stream size : 5.08 GiB (96%)
Language: English
Default : Yes
Forced: No
Color range : Limited
Color primaries : BT.709
Transfer characteristics: BT.709
Matrix coefficients : BT.709

Audio
ID: 2
Format: AC-3
Format/Info : Audio Coding 3
Commercial name : Dolby Digital
Codec ID: A_AC3
Duration: 2 h 40 min
Bit rate mode : Constant
Bit rate: 192 kb/s
Channel(s): 2 channels
Channel layout: L R
Sampling rate : 48.0 kHz
Frame rate: 31.250 FPS (1536 SPF)
Bit depth : 16 bits
Compression mode: Lossy
Delay relative to video : -42 ms
Stream size : 221 MiB (4%)
Language: Spanish
Service kind: Complete Main
Default : Yes
Forced: No

Menu
00:00:00.000: en:1
00:00:28.000: en:2
00:08:27.000: en:3
00:17:39.000: en:4
00:26:04.000: en:5
00:36:32.000: en:6
00:48:37.000: en:7
00:57:44.000: en:8
01:08:08.000: en:9
01:16:10.000: en:10
01:25:29.000: en:11
01:35:41.000: en:12
01:44:33.000: en:13
01:51:00.000: en:14
01:59:59.000: en:15
02:08:55.000: en:16
02:18:27.000: en:17
02:26:22.000: en:18
02:38:39.000: en:19

Download Links

CONTRASEÑA PARA DESCOMPRIMIR

APORTES NUEVOS

cinemaniahdd.com

APORTES VIEJOS

CinemaniaHD.org

COMPRA O RENUEVA TU PREMIUM DE UPLOADED DESDE EL SIGUIENTE LINK:

http://ul.to/ref/9821430

SI GUSTAS PUEDES SEGUIRNOS EN LAS REDES SOCIALES

Facebook

Twitter

Post Relacionados