La librería (2017) 1080p Latino

Descargar La librería (2017) 1080p Latino, Mega, Google Drive. En un pequeño pueblo de la Inglaterra de 1959, una mujer decide, en contra de la educada pero implacable oposición vecinal, abrir la primera librería que haya habido nunca en esa zona.



Titulo original The Bookshop
Audio Español Latino AC3 2.0 DVD - Ingles AC3 5.1 BLURAY
Calidad: 1080p Resolucion: 1920x1040p Formato: MKV
Encoder: Chesse92 Peso: 3.16 GiB Duracion: 1h 55m
Subtitulos: Español Latino SRT - Ingles SRT
  • No hay video embed

La Libreria (2017) 1080p Latino.mkv
Format: Matroska
Format version: Version 4 / Version 2
File size : 3.16 GiB
Duration: 1 h 52 min
Overall bit rate: 4 018 kb/s
Movie name: CinemaniaHDD.Net
Encoded date: UTC 2018-12-02 04:00:59
Writing application : mkvmerge v25.0.0 ('Prog Noir') 64-bit
Writing library : libebml v1.3.6 + libmatroska v1.4.9

Video
ID: 1
Format: AVC
Format/Info : Advanced Video Codec
Format profile: High@L4.1
Format settings : CABAC / 4 Ref Frames
Format settings, CABAC: Yes
Format settings, RefFrames: 4 frames
Codec ID: V_MPEG4/ISO/AVC
Duration: 1 h 52 min
Bit rate: 3 500 kb/s
Width : 1 920 pixels
Height: 1 040 pixels
Display aspect ratio: 1.85:1
Frame rate mode : Constant
Frame rate: 24.000 FPS
Color space : YUV
Chroma subsampling: 4:2:0
Bit depth : 8 bits
Scan type : Progressive
Bits/(Pixel*Frame): 0.073
Stream size : 2.66 GiB (84%)
Title : HD1080p [Bluray]
Writing library : x264 core 155 r2893 b00bcaf
Encoding settings : cabac=1 / ref=4 / deblock=1:0:0 / analyse=0x3:0x113 / me=hex / subme=8 / psy=1 / psy_rd=1.00:0.00 / mixed_ref=1 / me_range=16 / chroma_me=1 / trellis=2 / 8x8dct=1 / cqm=0 / deadzone=21,11 / fast_pskip=1 / chroma_qp_offset=-2 / threads=32 / lookahead_threads=5 / sliced_threads=0 / nr=0 / decimate=1 / interlaced=0 / bluray_compat=0 / constrained_intra=0 / bframes=3 / b_pyramid=2 / b_adapt=1 / b_bias=0 / direct=3 / weightb=1 / open_gop=0 / weightp=2 / keyint=240 / keyint_min=24 / scenecut=40 / intra_refresh=0 / rc_lookahead=50 / rc=abr / mbtree=1 / bitrate=3500 / ratetol=1.0 / qcomp=0.60 / qpmin=0 / qpmax=69 / qpstep=4 / vbv_maxrate=62500 / vbv_bufsize=78125 / nal_hrd=none / filler=0 / ip_ratio=1.40 / aq=1:1.00
Default : Yes
Forced: Yes
Color range : Limited
Color primaries : BT.709
Transfer characteristics: BT.709
Matrix coefficients : BT.709

Audio #1
ID: 2
Format: AC-3
Format/Info : Audio Coding 3
Format settings, Endianness : Big
Codec ID: A_AC3
Duration: 1 h 52 min
Bit rate mode : Constant
Bit rate: 192 kb/s
Channel(s): 2 channels
Channel positions : Front: L R
Sampling rate : 48.0 kHz
Frame rate: 31.250 FPS (1536 SPF)
Bit depth : 16 bits
Compression mode: Lossy
Delay relative to video : -5 ms
Stream size : 155 MiB (5%)
Title : AC3_2.0_DVD_Esp
Language: Spanish
Service kind: Complete Main
Default : Yes
Forced: Yes

Audio #2
ID: 3
Format: AC-3
Format/Info : Audio Coding 3
Format settings, Endianness : Big
Codec ID: A_AC3
Duration: 1 h 52 min
Bit rate mode : Constant
Bit rate: 448 kb/s
Channel(s): 6 channels
Channel positions : Front: L C R, Side: L R, LFE
Sampling rate : 48.0 kHz
Frame rate: 31.250 FPS (1536 SPF)
Bit depth : 16 bits
Compression mode: Lossy
Stream size : 361 MiB (11%)
Title : AC3_5.1_Bluray_Eng
Language: English
Service kind: Complete Main
Default : No
Forced: No

Text #1
ID: 4
Format: UTF-8
Codec ID: S_TEXT/UTF8
Codec ID/Info : UTF-8 Plain Text
Duration: 1 h 52 min
Bit rate: 56 b/s
Count of elements : 1332
Stream size : 46.2 KiB (0%)
Title : Sub_Esp
Language: Spanish
Default : No
Forced: No

Text #2
ID: 5
Format: UTF-8
Codec ID: S_TEXT/UTF8
Codec ID/Info : UTF-8 Plain Text
Duration: 1 h 45 min
Bit rate: 63 b/s
Count of elements : 1367
Stream size : 49.3 KiB (0%)
Title : Sub_Eng
Language: English
Default : No
Forced: No

Menu
00:00:00.000: :00:00:00.000
00:08:00.208: :00:08:00.105
00:11:32.167: :00:11:31.983
00:16:57.250: :00:16:57.183
00:21:09.667: :00:21:09.643
00:27:21.417: :00:27:21.265
00:33:03.542: :00:33:03.356
00:38:09.250: :00:38:09.245
00:42:29.292: :00:42:29.130
00:46:42.000: :00:46:41.799
00:54:14.375: :00:54:14.334
00:58:45.667: :00:58:45.480
01:04:55.417: :01:04:55.266
01:10:26.375: :01:10:26.139
01:16:28.333: :01:16:28.250
01:26:44.833: :01:26:44.699
01:32:06.958: :01:32:06.938
01:36:22.542: :01:36:22.443
01:41:53.250: :01:41:53.149
01:49:48.417: :01:49:48.415

Download Links

CONTRASEÑA PARA DESCOMPRIMIR

APORTES NUEVOS

cinemaniahdd.com

APORTES VIEJOS

CinemaniaHD.org

COMPRA O RENUEVA TU PREMIUM DE UPLOADED DESDE EL SIGUIENTE LINK:

http://ul.to/ref/9821430

SI GUSTAS PUEDES SEGUIRNOS EN LAS REDES SOCIALES

Facebook

Twitter

Post Relacionados