La Monja (2018) Full 1080p Latino

Descargar La Monja (2018) Full 1080p Latino, Mega, Google Drive. Cuando una joven monja se suicida en una abadía de clausura en Rumanía, un sacerdote experto en posesiones demoniacas y una novicia a punto de tomar sus votos, son enviados por el Vaticano para investigar. Juntos descubren el profano secreto de la orden. Arriesgando no solo sus propias vidas sino su fe y hasta sus almas, se enfrentan a una fuerza maléfica en forma de monja demoníaca, en una abadía que se convierte en un campo de batalla de horror entre los vivos y los condenados…. Spin-off de la película de terror de 2016 ‘The Conjuring 2’. Producida por Atomic Monster, productora del director especializado en el género de terror, James Wan.

 
Audio Español Latino AC3 5.1 Bluray – Ingles TrueHD 7.1 Bluray



Titulo original The Nun
Audio Español Latino AC3 5.1 BLURAY - DTS-HD Master 7.1 BLURAY
Calidad: Full 1080p Resolucion: 1920x1080p Formato: MKV
Encoder: CinefiloCool Peso: 4.45 GiB Duracion: 1h 36m
Subtitulos: Español Latino PGS - Ingles PGS
  • No hay video embed

La Monja (2018) Full 1080p Latino.mkv
Format: Matroska
Format version: Version 4
File size : 4.45 GiB
Duration: 1 h 36 min
Overall bit rate mode : Variable
Overall bit rate: 6 600 kb/s
Movie name: CinemaniaHDD.Net
Encoded date: UTC 2018-12-05 03:41:37
Writing application : mkvmerge v28.2.0 ('The Awakening') 64-bit
Writing library : libebml v1.3.6 + libmatroska v1.4.9

Video
ID: 1
Format: AVC
Format/Info : Advanced Video Codec
Format profile: High@L4.1
Format settings : CABAC / 4 Ref Frames
Format settings, CABAC: Yes
Format settings, ReFrames : 4 frames
Codec ID: V_MPEG4/ISO/AVC
Duration: 1 h 36 min
Bit rate: 2 606 kb/s
Width : 1 920 pixels
Height: 1 080 pixels
Display aspect ratio: 16:9
Frame rate mode : Constant
Frame rate: 23.976 (24000/1001) FPS
Color space : YUV
Chroma subsampling: 4:2:0
Bit depth : 8 bits
Scan type : Progressive
Bits/(Pixel*Frame): 0.052
Stream size : 1.76 GiB (39%)
Title : Full HD1080p [Bluray]
Writing library : x264 core 155 r2901 7d0ff22
Encoding settings : cabac=1 / ref=4 / deblock=1:0:0 / analyse=0x3:0x133 / me=esa / subme=10 / psy=1 / psy_rd=1.00:0.00 / mixed_ref=1 / me_range=24 / chroma_me=1 / trellis=2 / 8x8dct=1 / cqm=0 / deadzone=21,11 / fast_pskip=1 / chroma_qp_offset=-2 / threads=34 / lookahead_threads=5 / sliced_threads=0 / nr=0 / decimate=1 / interlaced=0 / bluray_compat=0 / constrained_intra=0 / bframes=8 / b_pyramid=2 / b_adapt=2 / b_bias=0 / direct=3 / weightb=1 / open_gop=0 / weightp=2 / keyint=240 / keyint_min=24 / scenecut=40 / intra_refresh=0 / rc_lookahead=60 / rc=crf / mbtree=1 / crf=20.0 / qcomp=0.60 / qpmin=0 / qpmax=69 / qpstep=4 / vbv_maxrate=62500 / vbv_bufsize=78125 / crf_max=0.0 / nal_hrd=none / filler=0 / ip_ratio=1.40 / aq=1:1.00
Default : Yes
Forced: No
Color range : Limited
Color primaries : BT.709
Transfer characteristics: BT.709
Matrix coefficients : BT.709

Audio #1
ID: 2
Format: AC-3
Format/Info : Audio Coding 3
Commercial name : Dolby Digital
Codec ID: A_AC3
Duration: 1 h 36 min
Bit rate mode : Constant
Bit rate: 640 kb/s
Channel(s): 6 channels
Channel layout: L R C LFE Ls Rs
Sampling rate : 48.0 kHz
Frame rate: 31.250 FPS (1536 SPF)
Bit depth : 16 bits
Compression mode: Lossy
Stream size : 442 MiB (10%)
Title : AC3_5.1_Bluray_Eng
Language: Spanish
Service kind: Complete Main
Default : Yes
Forced: Yes

Audio #2
ID: 3
Format: MLP FBA 16-ch
Format/Info : Meridian Lossless Packing FBA with 16-channel presentation
Commercial name : Dolby TrueHD with Dolby Atmos
Codec ID: A_TRUEHD
Duration: 1 h 36 min
Bit rate mode : Variable
Bit rate: 3 272 kb/s
Maximum bit rate: 5 742 kb/s
Channel(s): 8 channels
Channel layout: L R C LFE Ls Rs Lb Rb
Sampling rate : 48.0 kHz
Frame rate: 1 200.000 FPS (40 SPF)
Compression mode: Lossless
Stream size : 2.21 GiB (50%)
Title : TrueHD_7.1_Bluray_Eng
Language: English
Default : No
Forced: No
Number of dynamic objects : 11
Bed channel count : 1 channel
Bed channel configuration : LFE

Text #1
ID: 4
Format: PGS
Muxing mode : zlib
Codec ID: S_HDMV/PGS
Codec ID/Info : Picture based subtitle format used on BDs/HD-DVDs
Duration: 1 h 35 min
Bit rate: 280 b/s
Count of elements : 26
Stream size : 196 KiB (0%)
Title : Sub_Forzados [PGS]
Language: Spanish
Default : Yes
Forced: Yes

Text #2
ID: 5
Format: PGS
Muxing mode : zlib
Codec ID: S_HDMV/PGS
Codec ID/Info : Picture based subtitle format used on BDs/HD-DVDs
Duration: 1 h 35 min
Bit rate: 18.2 kb/s
Count of elements : 1274
Stream size : 12.4 MiB (0%)
Title : Sub_Esp [PGS]
Language: Spanish
Default : No
Forced: No

Text #3
ID: 6
Format: PGS
Muxing mode : zlib
Codec ID: S_HDMV/PGS
Codec ID/Info : Picture based subtitle format used on BDs/HD-DVDs
Duration: 1 h 35 min
Bit rate: 25.5 kb/s
Count of elements : 1885
Stream size : 17.4 MiB (0%)
Title : Sub_Eng [PGS]
Language: English
Default : No
Forced: No

Menu
00:00:00.000: :Chapter 1
00:08:42.897: :Chapter 2
00:17:55.074: :Chapter 3
00:29:17.506: :Chapter 4
00:38:05.033: :Chapter 5
00:48:49.802: :Chapter 6
00:58:49.276: :Chapter 7
01:09:17.070: :Chapter 8
01:18:14.565: :Chapter 9
01:24:18.637: :Chapter 10
01:32:30.295: :Chapter 11

Download Links

CONTRASEÑA PARA DESCOMPRIMIR

APORTES NUEVOS

cinemaniahdd.com

APORTES VIEJOS

CinemaniaHD.org

COMPRA O RENUEVA TU PREMIUM DE UPLOADED DESDE EL SIGUIENTE LINK:

http://ul.to/ref/9821430

SI GUSTAS PUEDES SEGUIRNOS EN LAS REDES SOCIALES

Facebook

Twitter

Post Relacionados