La noche de Halloween (2018) HD 1080p Latino

Jamie Lee Curtis regresa a su papel icónico como Laurie Strode, quien llega a su enfrentamiento final con Michael Myers, la figura enmascarada que la ha perseguido desde que escapó por poco de su juerga de asesinatos en la noche de Halloween de hace cuatro décadas. Esta película, la undécima película de la serie “Halloween”, ignorará los eventos de todas las secuelas anteriores, retomando 40 años después de los eventos de la película original.



Titulo original Halloween
Audio Se especifica abajo de la Sinopsis
Calidad: WEBDL Resolucion: 1916x800 Formato: MKV
Encoder: EVO Peso: 3.83 GiB Duracion: 2h 0m
Subtitulos: Español Latino SRT
  • No hay video embed

Halloween (2018) WEBDL 1080p Latino.mkv
Format: Matroska
Format version: Version 4
File size : 3.83 GiB
Duration: 1 h 45 min
Overall bit rate: 5 189 kb/s
Movie name: Cinemaniahdd.net
Encoded date: UTC 2018-12-28 13:44:16
Writing application : mkvmerge v28.2.0 ('The Awakening') 64-bit
Writing library : libebml v1.3.6 + libmatroska v1.4.9

Video
ID: 1
Format: AVC
Format/Info : Advanced Video Codec
Format profile: High@L4
Format settings : CABAC / 5 Ref Frames
Format settings, CABAC: Yes
Format settings, ReFrames : 5 frames
Codec ID: V_MPEG4/ISO/AVC
Duration: 1 h 45 min
Bit rate: 4 547 kb/s
Width : 1 916 pixels
Height: 800 pixels
Display aspect ratio: 2.40:1
Frame rate mode : Constant
Frame rate: 23.976 (23976/1000) FPS
Color space : YUV
Chroma subsampling: 4:2:0
Bit depth : 8 bits
Scan type : Progressive
Bits/(Pixel*Frame): 0.124
Stream size : 3.36 GiB (88%)
Language: English
Default : Yes
Forced: No
Color range : Limited
Color primaries : BT.709
Transfer characteristics: BT.709
Matrix coefficients : BT.709

Audio #1
ID: 2
Format: AC-3
Format/Info : Audio Coding 3
Commercial name : Dolby Digital
Codec ID: A_AC3
Duration: 1 h 45 min
Bit rate mode : Constant
Bit rate: 448 kb/s
Channel(s): 6 channels
Channel layout: L R C LFE Ls Rs
Sampling rate : 48.0 kHz
Frame rate: 31.250 FPS (1536 SPF)
Bit depth : 16 bits
Compression mode: Lossy
Stream size : 339 MiB (9%)
Language: Spanish
Service kind: Complete Main
Default : Yes
Forced: No

Audio #2
ID: 3
Format: AC-3
Format/Info : Audio Coding 3
Commercial name : Dolby Digital
Codec ID: A_AC3
Duration: 1 h 45 min
Bit rate mode : Constant
Bit rate: 192 kb/s
Channel(s): 2 channels
Channel layout: L R
Sampling rate : 48.0 kHz
Frame rate: 31.250 FPS (1536 SPF)
Bit depth : 16 bits
Compression mode: Lossy
Delay relative to video : 100 ms
Stream size : 145 MiB (4%)
Language: English
Service kind: Complete Main
Default : No
Forced: No

Text
ID: 4
Format: UTF-8
Codec ID: S_TEXT/UTF8
Codec ID/Info : UTF-8 Plain Text
Duration: 1 h 40 min
Bit rate: 59 b/s
Count of elements : 1365
Stream size : 43.7 KiB (0%)
Default : Yes
Forced: No

Menu
00:00:00.000: en:1
00:08:43.523: en:2
00:14:27.950: en:3
00:20:47.996: en:4
00:23:18.855: en:5
00:27:46.080: en:6
00:32:56.723: en:7
00:40:52.365: en:8
00:44:42.053: en:9
00:48:27.403: en:10
00:53:27.453: en:11
00:59:19.596: en:12
01:03:23.339: en:13
01:07:30.627: en:14
01:14:47.522: en:15
01:18:11.559: en:16
01:22:05.834: en:17
01:30:10.902: en:18
01:35:34.392: en:19
01:40:42.491: en:20

Download Links

CONTRASEÑA PARA DESCOMPRIMIR

APORTES NUEVOS

cinemaniahdd.com

APORTES VIEJOS

CinemaniaHD.org

COMPRA O RENUEVA TU PREMIUM DE UPLOADED DESDE EL SIGUIENTE LINK:

http://ul.to/ref/9821430

SI GUSTAS PUEDES SEGUIRNOS EN LAS REDES SOCIALES

Facebook

Twitter

Post Relacionados