La Sirenita (2018) AMZN Web-DL 1080p Latino

Descargar La Sirenita (2018) AMZN Web-DL 1080p Latino; Mega, Google Drive. Un joven periodista y su sobrina descubren una bella y encantadora criatura marina, y creen que se trata de una sirena real.



Titulo original The Little Mermaid
Audio Español Latino AC3 2.0 Capturado- Ingles AC3 5.1 AMAZON
Calidad: WEBDL Resolucion: 1920x800p Formato: MKV
Encoder: NTG Peso: 3.25 GiB Duracion: 1h 38m
Subtitulos: Español Latino SRT- FORZADOS SRT
  • No hay video embed

La Sirenita (2018) AMZN 1080p Latino.mkv
Format: Matroska
Format version: Version 4 / Version 2
File size : 3.25 GiB
Duration: 1 h 25 min
Overall bit rate: 5 446 kb/s
Movie name: CinemaniaHDD.Net
Encoded date: UTC 2018-11-02 06:09:46
Writing application : mkvmerge v25.0.0 ('Prog Noir') 64-bit
Writing library : libebml v1.3.6 + libmatroska v1.4.9

Video
ID: 1
Format: AVC
Format/Info : Advanced Video Codec
Format profile: High@L4
Format settings : CABAC / 4 Ref Frames
Format settings, CABAC: Yes
Format settings, RefFrames: 4 frames
Codec ID: V_MPEG4/ISO/AVC
Duration: 1 h 25 min
Bit rate: 4 548 kb/s
Width : 1 920 pixels
Height: 800 pixels
Display aspect ratio: 2.40:1
Frame rate mode : Constant
Frame rate: 23.976 (24000/1001) FPS
Color space : YUV
Chroma subsampling: 4:2:0
Bit depth : 8 bits
Scan type : Progressive
Bits/(Pixel*Frame): 0.124
Stream size : 2.71 GiB (84%)
Title : HD1080p [AMZN]
Default : Yes
Forced: No
Color range : Limited
Color primaries : BT.709
Transfer characteristics: BT.709
Matrix coefficients : BT.709

Audio #1
ID: 2
Format: AC-3
Format/Info : Audio Coding 3
Format settings, Endianness : Big
Codec ID: A_AC3
Duration: 1 h 25 min
Bit rate mode : Constant
Bit rate: 256 kb/s
Channel(s): 2 channels
Channel positions : Front: L R
Sampling rate : 48.0 kHz
Frame rate: 31.250 FPS (1536 SPF)
Bit depth : 16 bits
Compression mode: Lossy
Stream size : 156 MiB (5%)
Title : AC3_2.0_Capturado_Esp
Language: Spanish
Service kind: Complete Main
Default : Yes
Forced: Yes

Audio #2
ID: 3
Format: E-AC-3
Format/Info : Enhanced Audio Coding 3
Format settings, Endianness : Big
Codec ID: A_EAC3
Duration: 1 h 25 min
Bit rate mode : Constant
Bit rate: 640 kb/s
Channel(s): 6 channels
Channel positions : Front: L C R, Side: L R, LFE
Sampling rate : 48.0 kHz
Frame rate: 187.500 FPS (256 SPF)
Compression mode: Lossy
Stream size : 391 MiB (12%)
Title : e-AC3_5.1_AMZN_Eng
Language: English
Service kind: Complete Main
Default : No
Forced: No

Text #1
ID: 4
Format: UTF-8
Codec ID: S_TEXT/UTF8
Codec ID/Info : UTF-8 Plain Text
Duration: 1 h 17 min
Bit rate: 0 b/s
Count of elements : 9
Stream size : 173 Bytes (0%)
Title : Sub_Forzados
Language: Spanish
Default : Yes
Forced: Yes

Text #2
ID: 5
Format: UTF-8
Codec ID: S_TEXT/UTF8
Codec ID/Info : UTF-8 Plain Text
Duration: 1 h 22 min
Bit rate: 45 b/s
Count of elements : 953
Stream size : 27.2 KiB (0%)
Title : Sub_Esp
Language: Spanish
Default : No
Forced: No

Download Links

CONTRASEÑA PARA DESCOMPRIMIR

APORTES NUEVOS

cinemaniahdd.com

APORTES VIEJOS

CinemaniaHD.org

COMPRA O RENUEVA TU PREMIUM DE UPLOADED DESDE EL SIGUIENTE LINK:

http://ul.to/ref/9821430

SI GUSTAS PUEDES SEGUIRNOS EN LAS REDES SOCIALES

Facebook

Twitter

Post Relacionados