Las Sufragistas (2015) 1080p FULL HD Latino

El movimiento sufragista nació en Inglaterra en vísperas de la Primera Guerra Mundial (1914-1918). La mayoría de las sufragistas no procedían de las clases altas, sino que eran obreras que veían impotentes cómo sus pacíficas protestas no servían para nada. Entonces se radicalizaron y, en su incansable lucha por conseguir la igualdad, se arriesgaron a perderlo todo: su trabajo, su casa, sus hijos y su vida. La protagonista es Maud (Carey Mulligan), una mujer que reivindicó denodadamente la dignidad de las mujeres.



Titulo Original Suffragette
Año 2015
Duracion 106 min.
Director
Reparto Carey Mulligan, Helena Bonham Carter, Meryl Streep, Anne-Marie Duff, Brendan Gleeson, Ben Whishaw, Romola Garai, Samuel West, Geoff Bell, Natalie Press, Lee Nicholas Harris, Richard Banks, Adrian Schiller, Judit Novotnik, Morgan Watkins
Productora Carey Mulligan, Helena Bonham Carter, Meryl Streep, Anne-Marie Duff, Brendan Gleeson, Ben Whishaw, Romola Garai, Samuel West, Geoff Bell, Natalie Press, Lee Nicholas Harris, Richard Banks, Adrian Schiller, Judit Novotnik, Morgan Watkins
Genero
Titulo original Suffragette (2015) 1080p FULL HD Latino
Audio Español Latino [DTS 5.1 BD] - Ingles [DTS 5.1 BD]
Calidad: FULL HD 1080p Resolucion: 1920x1080p Formato: MKV
Encoder: ADDKiQ Peso: 6.3 GB Duracion: 106 min.
Subtitulos: Español Latino [PGS] - Ingles [PGS]
  • No hay video embed

General
Complete name : P:\TheSuffragette.cinemaniahdd.com.mkv
Format : Matroska
Format version : Version 4 / Version 2
File size : 6.32 GiB
Duration : 1h 46mn
Overall bit rate : 8 466 Kbps
Movie name : Las Sufragistas cinemaniahdd.com
Encoded date : UTC 2016-03-24 21:26:54 / UTC 2016-03-23T01:23:23Z
Writing application : mkvmerge v7.9.0 ('Birds') 64bit
Writing library : libebml v1.3.1 + libmatroska v1.4.2 / Lavf55.12.0
Cover : Yes
Attachments : cover.jpeg

Video
ID : 1
Format : AVC
Format/Info : Advanced Video Codec
Format profile : High@L4.1
Format settings, CABAC : Yes
Format settings, ReFrames : 4 frames
Codec ID : V_MPEG4/ISO/AVC
Bit rate : 6 021 Kbps
Width : 1 920 pixels
Height : 1 080 pixels
Display aspect ratio : 16:9
Frame rate mode : Variable
Color space : YUV
Chroma subsampling : 4:2:0
Bit depth : 8 bits
Scan type : Progressive
Writing library : x264 core 142 r2479 dd79a61
Encoding settings : cabac=1 / ref=4 / deblock=1:0:0 / analyse=0x3:0x133 / me=esa / subme=10 / psy=1 / psy_rd=1.00:0.00 / mixed_ref=1 / me_range=24 / chroma_me=1 / trellis=2 / 8x8dct=1 / cqm=0 / deadzone=21,11 / fast_pskip=1 / chroma_qp_offset=-2 / threads=36 / lookahead_threads=6 / sliced_threads=0 / nr=0 / decimate=1 / interlaced=0 / bluray_compat=0 / constrained_intra=0 / bframes=8 / b_pyramid=2 / b_adapt=2 / b_bias=0 / direct=3 / weightb=1 / open_gop=0 / weightp=2 / keyint=240 / keyint_min=24 / scenecut=40 / intra_refresh=0 / rc_lookahead=60 / rc=crf / mbtree=1 / crf=20.0 / qcomp=0.60 / qpmin=0 / qpmax=69 / qpstep=4 / vbv_maxrate=62500 / vbv_bufsize=78125 / crf_max=0.0 / nal_hrd=none / filler=0 / ip_ratio=1.40 / aq=1:1.00
Default : Yes
Forced : No
Color range : Limited
Color primaries : BT.709
Transfer characteristics : BT.709
Matrix coefficients : BT.709
Statistics Tags Issue : mkvmerge v7.9.0 ('Birds') 64bit 2016-03-24 21:26:54 / mkvmerge v7.9.0 ('Birds') 64bit 2016-03-24 21:26:54 / UTC 2016-03-23T01:23:23Z
FromStats_BitRate : 6166916
FromStats_Duration : 01:46:52.465000000
FromStats_FrameCount : 153744
FromStats_StreamSize : 4943141695

Audio #1
ID : 2
Format : DTS
Format/Info : Digital Theater Systems
Mode : 16
Format settings, Endianness : Big
Codec ID : A_DTS
Duration : 1h 46mn
Bit rate mode : Constant
Bit rate : 768 Kbps
Channel(s) : 6 channels
Channel positions : Front: L C R, Side: L R, LFE
Sampling rate : 48.0 KHz
Frame rate : 93.750 fps (512 spf)
Bit depth : 24 bits
Compression mode : Lossy
Stream size : 587 MiB (9%)
Title : Latino cinemaniahdd.com
Language : Spanish
Default : Yes
Forced : No
Statistics Tags Issue : mkvmerge v7.9.0 ('Birds') 64bit 2016-03-24 21:26:54 / mkvmerge v7.9.0 ('Birds') 64bit 2016-03-24 21:26:54 / UTC 2016-03-23T01:23:23Z
FromStats_BitRate : 767999
FromStats_Duration : 01:46:52.438000000
FromStats_FrameCount : 601166
FromStats_StreamSize : 615593984

Audio #2
ID : 3
Format : DTS
Format/Info : Digital Theater Systems
Mode : 16
Format settings, Endianness : Big
Codec ID : A_DTS
Duration : 1h 46mn
Bit rate mode : Constant
Bit rate : 1 509 Kbps
Channel(s) : 6 channels
Channel positions : Front: L C R, Side: L R, LFE
Sampling rate : 48.0 KHz
Frame rate : 93.750 fps (512 spf)
Bit depth : 24 bits
Compression mode : Lossy
Stream size : 1.13 GiB (18%)
Title : Iingles cinemaniahdd.com
Language : English
Default : No
Forced : No
Statistics Tags Issue : mkvmerge v7.9.0 ('Birds') 64bit 2016-03-24 21:26:54 / mkvmerge v7.9.0 ('Birds') 64bit 2016-03-24 21:26:54 / UTC 2016-03-23T01:23:23Z
FromStats_BitRate : 1508999
FromStats_Duration : 01:46:52.438000000
FromStats_FrameCount : 601166
FromStats_StreamSize : 1209545992

Text #1
ID : 4
Format : PGS
Muxing mode : zlib
Codec ID : S_HDMV/PGS
Codec ID/Info : Picture based subtitle format used on BDs/HD-DVDs
Language : Spanish
Default : No
Forced : No
Statistics Tags Issue : mkvmerge v7.9.0 ('Birds') 64bit 2016-03-24 21:26:54 / mkvmerge v7.9.0 ('Birds') 64bit 2016-03-24 21:26:54 / UTC 2016-03-23T01:23:23Z
FromStats_BitRate : 8514
FromStats_Duration : 01:44:55.706000000
FromStats_FrameCount : 2199
FromStats_StreamSize : 6700906

Text #2
ID : 5
Format : PGS
Muxing mode : zlib
Codec ID : S_HDMV/PGS
Codec ID/Info : Picture based subtitle format used on BDs/HD-DVDs
Language : English
Default : No
Forced : No
Statistics Tags Issue : mkvmerge v7.9.0 ('Birds') 64bit 2016-03-24 21:26:54 / mkvmerge v7.9.0 ('Birds') 64bit 2016-03-24 21:26:54 / UTC 2016-03-23T01:23:23Z
FromStats_BitRate : 11197
FromStats_Duration : 01:37:13.703000000
FromStats_FrameCount : 2560
FromStats_StreamSize : 8165166

Menu
00:00:00.000 : :Chapter 1
00:03:29.493 : :Chapter 2
00:06:40.976 : :Chapter 3
00:11:36.980 : :Chapter 4
00:17:44.389 : :Chapter 5
00:25:29.854 : :Chapter 6
00:31:58.158 : :Chapter 7
00:37:33.743 : :Chapter 8
00:43:26.971 : :Chapter 9
00:48:00.995 : :Chapter 10
00:52:04.572 : :Chapter 11
00:56:37.219 : :Chapter 12
01:01:50.407 : :Chapter 13
01:08:31.558 : :Chapter 14
01:12:58.199 : :Chapter 15
01:17:11.327 : :Chapter 16
01:21:15.696 : :Chapter 17
01:26:48.695 : :Chapter 18
01:35:29.049 : :Chapter 19
01:40:59.837 : :Chapter 20

Download Links

CONTRASEÑA PARA DESCOMPRIMIR

APORTES NUEVOS

cinemaniahdd.com

APORTES VIEJOS

CinemaniaHD.org

COMPRA O RENUEVA TU PREMIUM DE UPLOADED DESDE EL SIGUIENTE LINK:

http://ul.to/ref/9821430

SI GUSTAS PUEDES SEGUIRNOS EN LAS REDES SOCIALES

Facebook

Twitter

Post Relacionados