Leave No Trace (2018) Full 1080p Subtitulada

Un padre y su hija de 13 años viven una vida paradisíaca en un parque enorme de Portland, Oregon, hasta que un pequeño error complica sus vidas para siempre.



Titulo original Leave No Trace
Audio Ingles DTS 5.1 BLURAY
Calidad: Full 1080p Resolucion: 1920x1080p Formato: MKV
Encoder: Dracarys Peso: 5.51 GiB Duracion: 1h 48m
Subtitulos: Español Latino PGS - Ingles PGS
  • No hay video embed

Format                                 : Matroska
Format version                         : Version 4 / Version 2
File size                              : 5.51 GiB
Duration                               : 1 h 49 min
Overall bit rate                       : 7 224 kb/s
Movie name                             : CinemaniaHDD.net
Encoded date                           : UTC 2018-10-10 19:27:08 / UTC 2018-10-02T15:33:17Z
Writing application                    : mkvmerge v15.0.0 ('Duel with the Devil') 64-bit
Writing library                        : libebml v1.3.5 + libmatroska v1.4.5 / Lavf57.7.2

Video
ID                                     : 1
Format                                 : AVC
Format/Info                            : Advanced Video Codec
Format profile                         : High@L4.1
Format settings                        : CABAC / 4 Ref Frames
Format settings, CABAC                 : Yes
Format settings, RefFrames             : 4 frames
Codec ID                               : V_MPEG4/ISO/AVC
Duration                               : 1 h 49 min
Bit rate                               : 5 572 kb/s
Width                                  : 1 920 pixels
Height                                 : 1 080 pixels
Display aspect ratio                   : 16:9
Frame rate mode                        : Constant
Frame rate                             : 23.976 (24000/1001) FPS
Color space                            : YUV
Chroma subsampling                     : 4:2:0
Bit depth                              : 8 bits
Scan type                              : Progressive
Bits/(Pixel*Frame)                     : 0.112
Stream size                            : 4.25 GiB (77%)
Writing library                        : x264 core 148 r2708 86b7198
Encoding settings                      : cabac=1 / ref=4 / deblock=1:0:0 / analyse=0x3:0x133 / me=esa / subme=10 / psy=1 / psy_rd=1.00:0.00 / mixed_ref=1 / me_range=24 / chroma_me=1 / trellis=2 / 8x8dct=1 / cqm=0 / deadzone=21,11 / fast_pskip=1 / chroma_qp_offset=-2 / threads=34 / lookahead_threads=5 / sliced_threads=0 / nr=0 / decimate=1 / interlaced=0 / bluray_compat=0 / constrained_intra=0 / bframes=8 / b_pyramid=2 / b_adapt=2 / b_bias=0 / direct=3 / weightb=1 / open_gop=0 / weightp=2 / keyint=240 / keyint_min=24 / scenecut=40 / intra_refresh=0 / rc_lookahead=60 / rc=crf / mbtree=1 / crf=20.0 / qcomp=0.60 / qpmin=0 / qpmax=69 / qpstep=4 / vbv_maxrate=62500 / vbv_bufsize=78125 / crf_max=0.0 / nal_hrd=none / filler=0 / ip_ratio=1.40 / aq=1:1.00
Language                               : English
Default                                : Yes
Forced                                 : No
Color range                            : Limited
Color primaries                        : BT.709
Transfer characteristics               : BT.709
Matrix coefficients                    : BT.709
Statistics Tags Issue                  : mkvmerge v15.0.0 ('Duel with the Devil') 64-bit 2018-10-10 19:27:08 / mkvmerge v15.0.0 ('Duel with the Devil') 64-bit 2018-10-10 19:27:08 / UTC 2018-10-02T15:33:17Z
FromStats_BitRate                      : 5687247
FromStats_Duration                     : 01:49:08.375000000
FromStats_FrameCount                   : 157004
FromStats_StreamSize                   : 4655278847

Audio
ID                                     : 2
Format                                 : DTS
Format/Info                            : Digital Theater Systems
Mode                                   : 16
Format settings, Endianness            : Big
Codec ID                               : A_DTS
Duration                               : 1 h 49 min
Bit rate mode                          : Constant
Bit rate                               : 1 509 kb/s
Channel(s)                             : 6 channels
Channel positions                      : Front: L C R, Side: L R, LFE
Sampling rate                          : 48.0 kHz
Frame rate                             : 93.750 FPS (512 SPF)
Bit depth                              : 24 bits
Compression mode                       : Lossy
Stream size                            : 1.15 GiB (21%)
Language                               : English
Default                                : Yes
Forced                                 : No
Statistics Tags Issue                  : mkvmerge v15.0.0 ('Duel with the Devil') 64-bit 2018-10-10 19:27:08 / mkvmerge v15.0.0 ('Duel with the Devil') 64-bit 2018-10-10 19:27:08 / UTC 2018-10-02T15:33:17Z
FromStats_BitRate                      : 1508999
FromStats_Duration                     : 01:49:08.374000000
FromStats_FrameCount                   : 613910
FromStats_StreamSize                   : 1235186920

Text #1
ID                                     : 3
Format                                 : PGS
Muxing mode                            : zlib
Codec ID                               : S_HDMV/PGS
Codec ID/Info                          : Picture based subtitle format used on BDs/HD-DVDs
Language                               : English
Default                                : No
Forced                                 : No
Statistics Tags Issue                  : mkvmerge v15.0.0 ('Duel with the Devil') 64-bit 2018-10-10 19:27:08 / mkvmerge v15.0.0 ('Duel with the Devil') 64-bit 2018-10-10 19:27:08 / UTC 2018-10-02T15:33:17Z
FromStats_BitRate                      : 25648
FromStats_Duration                     : 01:48:03.519000000
FromStats_FrameCount                   : 1939
FromStats_StreamSize                   : 20786943

Text #2
ID                                     : 4
Format                                 : PGS
Muxing mode                            : zlib
Codec ID                               : S_HDMV/PGS
Codec ID/Info                          : Picture based subtitle format used on BDs/HD-DVDs
Language                               : Spanish
Default                                : Yes
Forced                                 : Yes
Statistics Tags Issue                  : mkvmerge v15.0.0 ('Duel with the Devil') 64-bit 2018-10-10 19:27:08 / mkvmerge v15.0.0 ('Duel with the Devil') 64-bit 2018-10-10 19:27:08 / UTC 2018-10-02T15:33:17Z
FromStats_BitRate                      : 21627
FromStats_Duration                     : 01:46:36.557000000
FromStats_FrameCount                   : 1624
FromStats_StreamSize                   : 17293064

Menu
00:00:00.000                           : :Chapter 1
00:06:03.864                           : :Chapter 2
00:12:19.113                           : :Chapter 3
00:17:38.975                           : :Chapter 4
00:24:16.080                           : :Chapter 5
00:31:44.569                           : :Chapter 6
00:37:35.879                           : :Chapter 7
00:43:43.663                           : :Chapter 8
00:46:33.624                           : :Chapter 9
00:51:24.498                           : :Chapter 10
00:58:27.212                           : :Chapter 11
01:02:13.605                           : :Chapter 12
01:07:40.056                           : :Chapter 13
01:11:50.348                           : :Chapter 14
01:17:27.685                           : :Chapter 15
01:22:42.875                           : :Chapter 16
01:28:44.486                           : :Chapter 17
01:34:25.869                           : :Chapter 18
01:36:38.543                           : :Chapter 19
01:43:31.914                           : :Chapter 20

 

Download Links

CONTRASEÑA PARA DESCOMPRIMIR

APORTES NUEVOS

cinemaniahdd.com

APORTES VIEJOS

CinemaniaHD.org

COMPRA O RENUEVA TU PREMIUM DE UPLOADED DESDE EL SIGUIENTE LINK:

http://ul.to/ref/9821430

SI GUSTAS PUEDES SEGUIRNOS EN LAS REDES SOCIALES

Facebook

Twitter

Post Relacionados