Legalmente rubia 2 (2003) Full 1080p Latino

Elle (Reese Witherspoon) está de vuelta como la enérgica, optimista y megapija joven abogada de la facultad de Harvard. En esta ocasión, Elle irá a Washington a defender los derechos de los animales. (FILMAFFINITY)



Titulo original Legally Blonde 2: Red, White & Blonde
Audio Español Latino AC3 5.1 BLURAY - Ingles DTS 5.1 BLURAY
Calidad: Full 1080p Resolucion: 1920x1080p Formato: MKV
Encoder: Dracarys Peso: 5.57 GiB Duracion: 1h 35m
Subtitulos: Español Latino PGS - Ingles PGS
  • No hay video embed

Format                                   : Matroska
Format version                           : Version 4 / Version 2
File size                                : 5.57 GiB
Duration                                 : 1 h 34 min
Overall bit rate                         : 8 426 kb/s
Movie name                               : CinemaniaHDD.net
Encoded date                             : UTC 2018-10-10 17:52:27 / UTC 2018-10-08T01:31:24Z
Writing application                      : mkvmerge v15.0.0 ('Duel with the Devil') 64-bit
Writing library                          : libebml v1.3.5 + libmatroska v1.4.5 / Lavf57.7.2

Video
ID                                       : 1
Format                                   : AVC
Format/Info                              : Advanced Video Codec
Format profile                           : High@L4.1
Format settings                          : CABAC / 4 Ref Frames
Format settings, CABAC                   : Yes
Format settings, RefFrames               : 4 frames
Codec ID                                 : V_MPEG4/ISO/AVC
Duration                                 : 1 h 34 min
Bit rate                                 : 6 109 kb/s
Width                                    : 1 920 pixels
Height                                   : 1 080 pixels
Display aspect ratio                     : 16:9
Frame rate mode                          : Constant
Frame rate                               : 23.976 (24000/1001) FPS
Color space                              : YUV
Chroma subsampling                       : 4:2:0
Bit depth                                : 8 bits
Scan type                                : Progressive
Bits/(Pixel*Frame)                       : 0.123
Stream size                              : 4.04 GiB (73%)
Writing library                          : x264 core 148 r2708 86b7198
Encoding settings                        : cabac=1 / ref=4 / deblock=1:0:0 / analyse=0x3:0x133 / me=esa / subme=10 / psy=1 / psy_rd=1.00:0.00 / mixed_ref=1 / me_range=24 / chroma_me=1 / trellis=2 / 8x8dct=1 / cqm=0 / deadzone=21,11 / fast_pskip=1 / chroma_qp_offset=-2 / threads=34 / lookahead_threads=5 / sliced_threads=0 / nr=0 / decimate=1 / interlaced=0 / bluray_compat=0 / constrained_intra=0 / bframes=8 / b_pyramid=2 / b_adapt=2 / b_bias=0 / direct=3 / weightb=1 / open_gop=0 / weightp=2 / keyint=240 / keyint_min=24 / scenecut=40 / intra_refresh=0 / rc_lookahead=60 / rc=crf / mbtree=1 / crf=20.0 / qcomp=0.60 / qpmin=0 / qpmax=69 / qpstep=4 / vbv_maxrate=62500 / vbv_bufsize=78125 / crf_max=0.0 / nal_hrd=none / filler=0 / ip_ratio=1.40 / aq=1:1.00
Language                                 : English
Default                                  : Yes
Forced                                   : No
Color range                              : Limited
Color primaries                          : BT.709
Transfer characteristics                 : BT.709
Matrix coefficients                      : BT.709
Statistics Tags Issue                    : mkvmerge v15.0.0 ('Duel with the Devil') 64-bit 2018-10-10 17:52:27 / mkvmerge v15.0.0 ('Duel with the Devil') 64-bit 2018-10-10 17:52:27 / UTC 2018-10-08T01:31:24Z
FromStats_BitRate                        : 6238695
FromStats_Duration                       : 01:34:37.380000000
FromStats_FrameCount                     : 136121
FromStats_StreamSize                     : 4427430949

Audio #1
ID                                       : 2
Format                                   : AC-3
Format/Info                              : Audio Coding 3
Format settings, Endianness              : Big
Codec ID                                 : A_AC3
Duration                                 : 1 h 34 min
Bit rate mode                            : Constant
Bit rate                                 : 640 kb/s
Channel(s)                               : 6 channels
Channel positions                        : Front: L C R, Side: L R, LFE
Sampling rate                            : 48.0 kHz
Frame rate                               : 31.250 FPS (1536 SPF)
Bit depth                                : 16 bits
Compression mode                         : Lossy
Stream size                              : 433 MiB (8%)
Language                                 : Spanish
Service kind                             : Complete Main
Default                                  : Yes
Forced                                   : No
Statistics Tags Issue                    : mkvmerge v15.0.0 ('Duel with the Devil') 64-bit 2018-10-10 17:52:27 / mkvmerge v15.0.0 ('Duel with the Devil') 64-bit 2018-10-10 17:52:27 / UTC 2018-10-08T01:31:24Z
FromStats_BitRate                        : 640000
FromStats_Duration                       : 01:34:37.376000000
FromStats_FrameCount                     : 177418
FromStats_StreamSize                     : 454190080

Audio #2
ID                                       : 3
Format                                   : DTS
Format/Info                              : Digital Theater Systems
Mode                                     : 16
Format settings, Endianness              : Big
Codec ID                                 : A_DTS
Duration                                 : 1 h 34 min
Bit rate mode                            : Constant
Bit rate                                 : 1 509 kb/s
Channel(s)                               : 6 channels
Channel positions                        : Front: L C R, Side: L R, LFE
Sampling rate                            : 48.0 kHz
Frame rate                               : 93.750 FPS (512 SPF)
Bit depth                                : 24 bits
Compression mode                         : Lossy
Stream size                              : 1 021 MiB (18%)
Language                                 : English
Default                                  : No
Forced                                   : No
Statistics Tags Issue                    : mkvmerge v15.0.0 ('Duel with the Devil') 64-bit 2018-10-10 17:52:27 / mkvmerge v15.0.0 ('Duel with the Devil') 64-bit 2018-10-10 17:52:27 / UTC 2018-10-08T01:31:24Z
FromStats_BitRate                        : 1508999
FromStats_Duration                       : 01:34:37.366000000
FromStats_FrameCount                     : 532253
FromStats_StreamSize                     : 1070893036

Text #1
ID                                       : 4
Format                                   : PGS
Muxing mode                              : zlib
Codec ID                                 : S_HDMV/PGS
Codec ID/Info                            : Picture based subtitle format used on BDs/HD-DVDs
Language                                 : English
Default                                  : No
Forced                                   : No
Statistics Tags Issue                    : mkvmerge v15.0.0 ('Duel with the Devil') 64-bit 2018-10-10 17:52:27 / mkvmerge v15.0.0 ('Duel with the Devil') 64-bit 2018-10-10 17:52:27 / UTC 2018-10-08T01:31:24Z
FromStats_BitRate                        : 54485
FromStats_Duration                       : 01:33:51.668000000
FromStats_FrameCount                     : 2726
FromStats_StreamSize                     : 38355513

Text #2
ID                                       : 5
Format                                   : PGS
Muxing mode                              : zlib
Codec ID                                 : S_HDMV/PGS
Codec ID/Info                            : Picture based subtitle format used on BDs/HD-DVDs
Language                                 : Spanish
Default                                  : No
Forced                                   : No
Statistics Tags Issue                    : mkvmerge v15.0.0 ('Duel with the Devil') 64-bit 2018-10-10 17:52:27 / mkvmerge v15.0.0 ('Duel with the Devil') 64-bit 2018-10-10 17:52:27 / UTC 2018-10-08T01:31:24Z
FromStats_BitRate                        : 57618
FromStats_Duration                       : 01:33:55.296000000
FromStats_FrameCount                     : 2792
FromStats_StreamSize                     : 40587219

Menu
00:00:00.000                             : :Chapter 1
00:02:49.336                             : :Chapter 2
00:04:06.788                             : :Chapter 3
00:05:30.580                             : :Chapter 4
00:06:32.517                             : :Chapter 5
00:08:08.446                             : :Chapter 6
00:10:12.737                             : :Chapter 7
00:14:41.172                             : :Chapter 8
00:16:42.460                             : :Chapter 9
00:21:52.770                             : :Chapter 10
00:25:15.806                             : :Chapter 11
00:27:55.048                             : :Chapter 12
00:30:58.648                             : :Chapter 13
00:32:25.902                             : :Chapter 14
00:35:20.994                             : :Chapter 15
00:36:26.559                             : :Chapter 16
00:39:31.870                             : :Chapter 17
00:40:33.389                             : :Chapter 18
00:41:12.095                             : :Chapter 19
00:43:29.398                             : :Chapter 20
00:45:36.400                             : :Chapter 21
00:50:30.027                             : :Chapter 22
00:55:57.187                             : :Chapter 23
00:57:25.817                             : :Chapter 24
01:00:34.131                             : :Chapter 25
01:05:13.034                             : :Chapter 26
01:07:58.199                             : :Chapter 27
01:11:18.441                             : :Chapter 28
01:15:03.457                             : :Chapter 29
01:20:45.466                             : :Chapter 30
01:26:45.826                             : :Chapter 31
01:29:42.711                             : :Chapter 32

 

Download Links

CONTRASEÑA PARA DESCOMPRIMIR

APORTES NUEVOS

cinemaniahdd.com

APORTES VIEJOS

CinemaniaHD.org

COMPRA O RENUEVA TU PREMIUM DE UPLOADED DESDE EL SIGUIENTE LINK:

http://ul.to/ref/9821430

SI GUSTAS PUEDES SEGUIRNOS EN LAS REDES SOCIALES

Facebook

Twitter

Post Relacionados