Legalmente rubia (2001) Full 1080p Latino

Elle Woods es una rubia auténtica, además de muy popular, buena estudiante, presidenta de su hermandad y Miss Junio en el calendario de la Universidad. Ha disfrutado de una vida maravillosa y está enamorada de Warner Huntington III. Pero todo se derrumba cuando su novio decide romper con ella debido a que es demasiado rubia y no lo suficientemente formal para su futura carrera en el mundo de la política. Decidida a salir adelante, Elle se matricula en la Facultad de Derecho de la Universidad de Harvard, asumiendo un reto aún mayor de lo que esperaba.



Titulo original Legally Blonde
Audio Español Latino AC3 2.0 BLURAY - Ingles DTS 5.1 BLURAY
Calidad: Full 1080p Resolucion: 1920x1080p Formato: MKV
Encoder: Dracarys Peso: 6.03 GiB Duracion: 1h 36m
Subtitulos: Español Latino PGS - Ingles PGS
  • No hay video embed

Format                                   : Matroska
Format version                           : Version 4 / Version 2
File size                                : 6.03 GiB
Duration                                 : 1 h 36 min
Overall bit rate                         : 8 990 kb/s
Movie name                               : CinemaniaHDD.net
Encoded date                             : UTC 2018-10-10 17:51:13 / UTC 2018-10-08T04:37:57Z
Writing application                      : mkvmerge v15.0.0 ('Duel with the Devil') 64-bit
Writing library                          : libebml v1.3.5 + libmatroska v1.4.5 / Lavf57.7.2

Video
ID                                       : 1
Format                                   : AVC
Format/Info                              : Advanced Video Codec
Format profile                           : High@L4.1
Format settings                          : CABAC / 4 Ref Frames
Format settings, CABAC                   : Yes
Format settings, RefFrames               : 4 frames
Codec ID                                 : V_MPEG4/ISO/AVC
Duration                                 : 1 h 36 min
Bit rate                                 : 7 046 kb/s
Width                                    : 1 920 pixels
Height                                   : 1 080 pixels
Display aspect ratio                     : 16:9
Frame rate mode                          : Constant
Frame rate                               : 23.976 (24000/1001) FPS
Color space                              : YUV
Chroma subsampling                       : 4:2:0
Bit depth                                : 8 bits
Scan type                                : Progressive
Bits/(Pixel*Frame)                       : 0.142
Stream size                              : 4.73 GiB (78%)
Writing library                          : x264 core 148 r2708 86b7198
Encoding settings                        : cabac=1 / ref=4 / deblock=1:0:0 / analyse=0x3:0x133 / me=esa / subme=10 / psy=1 / psy_rd=1.00:0.00 / mixed_ref=1 / me_range=24 / chroma_me=1 / trellis=2 / 8x8dct=1 / cqm=0 / deadzone=21,11 / fast_pskip=1 / chroma_qp_offset=-2 / threads=34 / lookahead_threads=5 / sliced_threads=0 / nr=0 / decimate=1 / interlaced=0 / bluray_compat=0 / constrained_intra=0 / bframes=8 / b_pyramid=2 / b_adapt=2 / b_bias=0 / direct=3 / weightb=1 / open_gop=0 / weightp=2 / keyint=240 / keyint_min=24 / scenecut=40 / intra_refresh=0 / rc_lookahead=60 / rc=crf / mbtree=1 / crf=20.0 / qcomp=0.60 / qpmin=0 / qpmax=69 / qpstep=4 / vbv_maxrate=62500 / vbv_bufsize=78125 / crf_max=0.0 / nal_hrd=none / filler=0 / ip_ratio=1.40 / aq=1:1.00
Language                                 : English
Default                                  : Yes
Forced                                   : No
Color range                              : Limited
Color primaries                          : BT.709
Transfer characteristics                 : BT.709
Matrix coefficients                      : BT.709
Statistics Tags Issue                    : mkvmerge v15.0.0 ('Duel with the Devil') 64-bit 2018-10-10 17:51:13 / mkvmerge v15.0.0 ('Duel with the Devil') 64-bit 2018-10-10 17:51:13 / UTC 2018-10-08T04:37:57Z
FromStats_BitRate                        : 7192622
FromStats_Duration                       : 01:36:00.463000000
FromStats_FrameCount                     : 138113
FromStats_StreamSize                     : 5179104426

Audio #1
ID                                       : 2
Format                                   : AC-3
Format/Info                              : Audio Coding 3
Mode                                     : Dolby Digital
Format settings, Endianness              : Big
Codec ID                                 : A_AC3
Duration                                 : 1 h 36 min
Bit rate mode                            : Constant
Bit rate                                 : 256 kb/s
Channel(s)                               : 2 channels
Channel positions                        : Front: L R
Sampling rate                            : 48.0 kHz
Frame rate                               : 31.250 FPS (1536 SPF)
Bit depth                                : 16 bits
Compression mode                         : Lossy
Stream size                              : 176 MiB (3%)
Language                                 : Spanish
Service kind                             : Complete Main
Default                                  : Yes
Forced                                   : No
Statistics Tags Issue                    : mkvmerge v15.0.0 ('Duel with the Devil') 64-bit 2018-10-10 17:51:13 / mkvmerge v15.0.0 ('Duel with the Devil') 64-bit 2018-10-10 17:51:13 / UTC 2018-10-08T04:37:57Z
FromStats_BitRate                        : 256000
FromStats_Duration                       : 01:36:00.512000000
FromStats_FrameCount                     : 180016
FromStats_StreamSize                     : 184336384

Audio #2
ID                                       : 3
Format                                   : DTS
Format/Info                              : Digital Theater Systems
Mode                                     : 16
Format settings, Endianness              : Big
Codec ID                                 : A_DTS
Duration                                 : 1 h 36 min
Bit rate mode                            : Constant
Bit rate                                 : 1 509 kb/s
Channel(s)                               : 6 channels
Channel positions                        : Front: L C R, Side: L R, LFE
Sampling rate                            : 48.0 kHz
Frame rate                               : 93.750 FPS (512 SPF)
Bit depth                                : 24 bits
Compression mode                         : Lossy
Stream size                              : 1.01 GiB (17%)
Language                                 : English
Default                                  : No
Forced                                   : No
Statistics Tags Issue                    : mkvmerge v15.0.0 ('Duel with the Devil') 64-bit 2018-10-10 17:51:13 / mkvmerge v15.0.0 ('Duel with the Devil') 64-bit 2018-10-10 17:51:13 / UTC 2018-10-08T04:37:57Z
FromStats_BitRate                        : 1508999
FromStats_Duration                       : 01:36:00.491000000
FromStats_FrameCount                     : 540046
FromStats_StreamSize                     : 1086572552

Text #1
ID                                       : 4
Format                                   : PGS
Muxing mode                              : zlib
Codec ID                                 : S_HDMV/PGS
Codec ID/Info                            : Picture based subtitle format used on BDs/HD-DVDs
Language                                 : English
Default                                  : No
Forced                                   : No
Statistics Tags Issue                    : mkvmerge v15.0.0 ('Duel with the Devil') 64-bit 2018-10-10 17:51:13 / mkvmerge v15.0.0 ('Duel with the Devil') 64-bit 2018-10-10 17:51:13 / UTC 2018-10-08T04:37:57Z
FromStats_BitRate                        : 48466
FromStats_Duration                       : 01:33:39.447000000
FromStats_FrameCount                     : 2810
FromStats_StreamSize                     : 34044282

Text #2
ID                                       : 5
Format                                   : PGS
Muxing mode                              : zlib
Codec ID                                 : S_HDMV/PGS
Codec ID/Info                            : Picture based subtitle format used on BDs/HD-DVDs
Language                                 : Spanish
Default                                  : No
Forced                                   : No
Statistics Tags Issue                    : mkvmerge v15.0.0 ('Duel with the Devil') 64-bit 2018-10-10 17:51:13 / mkvmerge v15.0.0 ('Duel with the Devil') 64-bit 2018-10-10 17:51:13 / UTC 2018-10-08T04:37:57Z
FromStats_BitRate                        : 41462
FromStats_Duration                       : 01:31:19.725000000
FromStats_FrameCount                     : 2544
FromStats_StreamSize                     : 28400496

Menu
00:00:00.000                             : :Chapter 1
00:03:37.092                             : :Chapter 2
00:05:15.649                             : :Chapter 3
00:10:57.448                             : :Chapter 4
00:13:17.130                             : :Chapter 5
00:16:10.720                             : :Chapter 6
00:18:40.202                             : :Chapter 7
00:21:30.498                             : :Chapter 8
00:23:44.757                             : :Chapter 9
00:28:51.563                             : :Chapter 10
00:31:41.983                             : :Chapter 11
00:35:03.727                             : :Chapter 12
00:38:11.164                             : :Chapter 13
00:40:08.740                             : :Chapter 14
00:42:41.726                             : :Chapter 15
00:44:39.635                             : :Chapter 16
00:47:20.546                             : :Chapter 17
00:51:06.146                             : :Chapter 18
00:53:13.857                             : :Chapter 19
00:54:37.524                             : :Chapter 20
00:57:46.463                             : :Chapter 21
01:01:55.462                             : :Chapter 22
01:04:28.573                             : :Chapter 23
01:05:32.929                             : :Chapter 24
01:07:28.670                             : :Chapter 25
01:13:10.595                             : :Chapter 26
01:15:59.597                             : :Chapter 27
01:18:41.300                             : :Chapter 28
01:21:58.330                             : :Chapter 29
01:27:09.391                             : :Chapter 30
01:28:36.978                             : :Chapter 31
01:31:57.929                             : :Chapter 32

 

Download Links

CONTRASEÑA PARA DESCOMPRIMIR

APORTES NUEVOS

cinemaniahdd.com

APORTES VIEJOS

CinemaniaHD.org

COMPRA O RENUEVA TU PREMIUM DE UPLOADED DESDE EL SIGUIENTE LINK:

http://ul.to/ref/9821430

SI GUSTAS PUEDES SEGUIRNOS EN LAS REDES SOCIALES

Facebook

Twitter

Post Relacionados