Lluvia De Acero (2017) WEB-DL 1080p Latino

Un ex agente de la inteligencia de Corea del Norte y un alto funcionario de los servicios de seguridad de Corea del Sur llevan a cabo una misión secreta para evitar el estallido de una guerra nuclear en la Península de Corea.

Audio Latino: AC3 5.1 Itunes – Audio Coreano: AC3 5.1 Itunes



Titulo Original 강철비
Año 2017-12-14
Duracion 2h 19m
Director
Reparto , , , , , , , , ,
Productora
Genero
Titulo original 강철비
Audio Se especifica abajo de la Sinopsis
Calidad: 1080p Resolucion: 1920x1080 Formato: MKV
Encoder: Lpratto Peso: 3.61 GB Duracion: 2h 19m
Subtitulos: Español Latino SRT
  • No hay video embed

Format: Matroska
Format version: Version 4 / Version 2
File size : 3.61 GiB
Duration: 2 h 19 min
Overall bit rate: 3 694 kb/s
Movie name: CinemaniaHDD.com
Encoded date: UTC 2018-03-15 07:53:04
Writing application : mkvmerge v15.0.0 ('Duel with the Devil') 64-bit
Writing library : libebml v1.3.5 + libmatroska v1.4.5
 
Video
ID: 1
Format: AVC
Format/Info : Advanced Video Codec
Format profile: Main@L4
Format settings, CABAC: Yes
Format settings, RefFrames: 2 frames
Format settings, GOP: M=1, N=12
Codec ID: V_MPEG4/ISO/AVC
Duration: 2 h 19 min
Bit rate: 2 924 kb/s
Width : 1 920 pixels
Height: 1 080 pixels
Display aspect ratio: 16:9
Frame rate mode : Constant
Frame rate: 24.000 FPS
Color space : YUV
Chroma subsampling: 4:2:0
Bit depth : 8 bits
Scan type : Progressive
Bits/(Pixel*Frame): 0.059
Stream size : 2.86 GiB (79%)
Default : Yes
Forced: No
 
Audio #1
ID: 2
Format: AC-3
Format/Info : Audio Coding 3
Format settings, Endianness : Big
Codec ID: A_AC3
Duration: 2 h 19 min
Bit rate mode : Constant
Bit rate: 384 kb/s
Channel(s): 6 channels
Channel positions : Front: L C R, Side: L R, LFE
Sampling rate : 48.0 kHz
Frame rate: 31.250 FPS (1536 SPF)
Bit depth : 16 bits
Compression mode: Lossy
Delay relative to video : -42 ms
Stream size : 384 MiB (10%)
Title : Latino
Language: Spanish
Service kind: Complete Main
Default : Yes
Forced: No
 
Audio #2
ID: 3
Format: AC-3
Format/Info : Audio Coding 3
Format settings, Endianness : Big
Codec ID: A_AC3
Duration: 2 h 19 min
Bit rate mode : Constant
Bit rate: 384 kb/s
Channel(s): 6 channels
Channel positions : Front: L C R, Side: L R, LFE
Sampling rate : 48.0 kHz
Frame rate: 31.250 FPS (1536 SPF)
Bit depth : 16 bits
Compression mode: Lossy
Delay relative to video : -42 ms
Stream size : 384 MiB (10%)
Title : Koreano
Language: Korean
Service kind: Complete Main
Default : No
Forced: No
 
Text
ID: 4
Format: UTF-8
Codec ID: S_TEXT/UTF8
Codec ID/Info : UTF-8 Plain Text
Duration: 2 h 16 min
Bit rate: 63 b/s
Count of elements : 1646
Stream size : 63.3 KiB (0%)
Title : Latino
Language: Spanish
Default : No
Forced: No

Download Links

CONTRASEÑA PARA DESCOMPRIMIR

APORTES NUEVOS

cinemaniahdd.com

APORTES VIEJOS

CinemaniaHD.org

COMPRA O RENUEVA TU PREMIUM DE UPLOADED DESDE EL SIGUIENTE LINK:

http://ul.to/ref/9821430

SI GUSTAS PUEDES SEGUIRNOS EN LAS REDES SOCIALES

Facebook

Twitter

Post Relacionados