Los 4 fantásticos (2005) 1080p Latino

Los 4 fantásticos (2005) 1080p Latino; Mega, Google Drive. Cuatro astronautas se convierten en superhéroes tras ser contaminados en el espacio exterior. En compañía del benefactor del proyecto, el ambicioso Von Doom (Julian McMahon), los cuatro parten para la exploración de sus vidas. La misión discurre sin incidentes hasta que Reed descubre que hay un error de cálculo en la velocidad con la que se acerca la tormenta. En unos minutos, el umbral de este fenómeno atmosférico está sobre ellos. La estación espacial se ve engullida por turbulentas nubes de radiación cósmica que cambian el genoma de la tripulación. Su ADN se ve irrevocablemente alterado…. y ése va a ser su futuro. De regreso a la Tierra, los efectos de la exposición muestran rápidamente sus primeros síntomas brindando a cada uno de ellos poderes sobrenaturales, convirtiéndose en Los Cuatro Fantásticos: Míster Fantástico, La Chica Invisible, La Antorcha Humana y La Cosa.



Titulo original Fantastic Four
Audio Español Latino AC3 5.1 BLURAY - Ingles AC3 5.1 BLURAY
Calidad: 1080p Resolucion: 1920x816p Formato: MKV
Encoder: CinefiloCool Peso: 3.25 GiB Duracion: 1h 45m
Subtitulos: Español Latino SRT - Ingles SRT
  • No hay video embed

Los 4 Fantasticos (2005) 1080p Latino.mkv
Format: Matroska
Format version: Version 4 / Version 2
File size : 3.25 GiB
Duration: 1 h 45 min
Overall bit rate: 4 398 kb/s
Movie name: CinemaniaHDD.Net
Encoded date: UTC 2018-10-23 01:04:25
Writing application : mkvmerge v25.0.0 ('Prog Noir') 64-bit
Writing library : libebml v1.3.6 + libmatroska v1.4.9

Video
ID: 1
Format: AVC
Format/Info : Advanced Video Codec
Format profile: High@L4.1
Format settings : CABAC / 5 Ref Frames
Format settings, CABAC: Yes
Format settings, RefFrames: 5 frames
Codec ID: V_MPEG4/ISO/AVC
Duration: 1 h 45 min
Bit rate: 3 500 kb/s
Width : 1 920 pixels
Height: 816 pixels
Display aspect ratio: 2.35:1
Frame rate mode : Constant
Frame rate: 23.976 (24000/1001) FPS
Color space : YUV
Chroma subsampling: 4:2:0
Bit depth : 8 bits
Scan type : Progressive
Bits/(Pixel*Frame): 0.093
Stream size : 2.59 GiB (80%)
Title : HD1080p [Bluray]
Writing library : x264 core 155 r2893 b00bcaf
Encoding settings : cabac=1 / ref=5 / deblock=1:0:0 / analyse=0x3:0x133 / me=umh / subme=9 / psy=1 / psy_rd=1.00:0.00 / mixed_ref=1 / me_range=16 / chroma_me=1 / trellis=2 / 8x8dct=1 / cqm=0 / deadzone=21,11 / fast_pskip=1 / chroma_qp_offset=-2 / threads=25 / lookahead_threads=2 / sliced_threads=0 / nr=0 / decimate=1 / interlaced=0 / bluray_compat=0 / constrained_intra=0 / bframes=3 / b_pyramid=2 / b_adapt=2 / b_bias=0 / direct=3 / weightb=1 / open_gop=0 / weightp=2 / keyint=240 / keyint_min=24 / scenecut=40 / intra_refresh=0 / rc_lookahead=60 / rc=2pass / mbtree=1 / bitrate=3500 / ratetol=1.0 / qcomp=0.60 / qpmin=0 / qpmax=69 / qpstep=4 / cplxblur=20.0 / qblur=0.5 / vbv_maxrate=62500 / vbv_bufsize=78125 / nal_hrd=none / filler=0 / ip_ratio=1.40 / aq=1:1.00
Default : Yes
Forced: No
Color range : Limited
Color primaries : BT.709
Transfer characteristics: BT.709
Matrix coefficients : BT.709

Audio #1
ID: 2
Format: AC-3
Format/Info : Audio Coding 3
Format settings, Endianness : Big
Codec ID: A_AC3
Duration: 1 h 45 min
Bit rate mode : Constant
Bit rate: 448 kb/s
Channel(s): 6 channels
Channel positions : Front: L C R, Side: L R, LFE
Sampling rate : 48.0 kHz
Frame rate: 31.250 FPS (1536 SPF)
Bit depth : 16 bits
Compression mode: Lossy
Stream size : 339 MiB (10%)
Title : AC3_5.1_Bluray_Esp
Language: Spanish
Service kind: Complete Main
Default : Yes
Forced: No

Audio #2
ID: 3
Format: AC-3
Format/Info : Audio Coding 3
Format settings, Endianness : Big
Codec ID: A_AC3
Duration: 1 h 45 min
Bit rate mode : Constant
Bit rate: 448 kb/s
Channel(s): 6 channels
Channel positions : Front: L C R, Side: L R, LFE
Sampling rate : 48.0 kHz
Frame rate: 31.250 FPS (1536 SPF)
Bit depth : 16 bits
Compression mode: Lossy
Stream size : 339 MiB (10%)
Title : AC3_5.1_Bluray_Eng
Language: English
Service kind: Complete Main
Default : No
Forced: No

Text #1
ID: 4
Format: UTF-8
Codec ID: S_TEXT/UTF8
Codec ID/Info : UTF-8 Plain Text
Duration: 1 h 35 min
Bit rate: 0 b/s
Count of elements : 23
Stream size : 501 Bytes (0%)
Title : Sub_Forzados
Language: Spanish
Default : Yes
Forced: Yes

Text #2
ID: 5
Format: UTF-8
Codec ID: S_TEXT/UTF8
Codec ID/Info : UTF-8 Plain Text
Duration: 1 h 36 min
Bit rate: 49 b/s
Count of elements : 1063
Stream size : 35.2 KiB (0%)
Title : Sub_Esp
Language: Spanish
Default : No
Forced: No

Text #3
ID: 6
Format: UTF-8
Codec ID: S_TEXT/UTF8
Codec ID/Info : UTF-8 Plain Text
Duration: 1 h 36 min
Bit rate: 54 b/s
Count of elements : 1104
Stream size : 38.4 KiB (0%)
Title : Sub_Eng
Language: English
Default : No
Forced: No

Download Links

CONTRASEÑA PARA DESCOMPRIMIR

APORTES NUEVOS

cinemaniahdd.com

APORTES VIEJOS

CinemaniaHD.org

COMPRA O RENUEVA TU PREMIUM DE UPLOADED DESDE EL SIGUIENTE LINK:

http://ul.to/ref/9821430

SI GUSTAS PUEDES SEGUIRNOS EN LAS REDES SOCIALES

Facebook

Twitter

Post Relacionados