Los 4 fantásticos (2005) Full 1080p Latino

Los 4 fantásticos (2005) Full 1080p Latino; Mega, Google Drive. Cuatro astronautas se convierten en superhéroes tras ser contaminados en el espacio exterior. En compañía del benefactor del proyecto, el ambicioso Von Doom (Julian McMahon), los cuatro parten para la exploración de sus vidas. La misión discurre sin incidentes hasta que Reed descubre que hay un error de cálculo en la velocidad con la que se acerca la tormenta. En unos minutos, el umbral de este fenómeno atmosférico está sobre ellos. La estación espacial se ve engullida por turbulentas nubes de radiación cósmica que cambian el genoma de la tripulación. Su ADN se ve irrevocablemente alterado…. y ése va a ser su futuro. De regreso a la Tierra, los efectos de la exposición muestran rápidamente sus primeros síntomas brindando a cada uno de ellos poderes sobrenaturales, convirtiéndose en Los Cuatro Fantásticos: Míster Fantástico, La Chica Invisible, La Antorcha Humana y La Cosa.



Titulo original Fantastic Four
Audio Español Latino AC3 5.1 BLURAY - Ingles DTS 5.1 BLURAY
Calidad: Full 1080p Resolucion: 1920x1080p Formato: MKV
Encoder: CinefiloCool Peso: 6.95 GiB Duracion: 1h 45m
Subtitulos: Español Latino PGS - Ingles PGS
  • No hay video embed

Los 4 Fantasticos (2005) Full 1080p Latino.mkv
Format: Matroska
Format version: Version 4 / Version 2
File size : 6.95 GiB
Duration: 1 h 45 min
Overall bit rate: 9 397 kb/s
Movie name: CinemaniaHDD.Net
Encoded date: UTC 2018-10-23 01:11:01
Writing application : mkvmerge v25.0.0 ('Prog Noir') 64-bit
Writing library : libebml v1.3.6 + libmatroska v1.4.9

Video
ID: 1
Format: AVC
Format/Info : Advanced Video Codec
Format profile: High@L4.1
Format settings : CABAC / 4 Ref Frames
Format settings, CABAC: Yes
Format settings, RefFrames: 4 frames
Codec ID: V_MPEG4/ISO/AVC
Duration: 1 h 45 min
Bit rate: 4 987 kb/s
Width : 1 920 pixels
Height: 1 080 pixels
Display aspect ratio: 16:9
Frame rate mode : Constant
Frame rate: 23.976 (24000/1001) FPS
Color space : YUV
Chroma subsampling: 4:2:0
Bit depth : 8 bits
Scan type : Progressive
Bits/(Pixel*Frame): 0.100
Stream size : 3.69 GiB (53%)
Title : HD1080p [Bluray]
Writing library : x264 core 155 r2893 b00bcaf
Encoding settings : cabac=1 / ref=4 / deblock=1:0:0 / analyse=0x3:0x133 / me=esa / subme=10 / psy=1 / psy_rd=1.00:0.00 / mixed_ref=1 / me_range=24 / chroma_me=1 / trellis=2 / 8x8dct=1 / cqm=0 / deadzone=21,11 / fast_pskip=1 / chroma_qp_offset=-2 / threads=34 / lookahead_threads=5 / sliced_threads=0 / nr=0 / decimate=1 / interlaced=0 / bluray_compat=0 / constrained_intra=0 / bframes=8 / b_pyramid=2 / b_adapt=2 / b_bias=0 / direct=3 / weightb=1 / open_gop=0 / weightp=2 / keyint=240 / keyint_min=24 / scenecut=40 / intra_refresh=0 / rc_lookahead=60 / rc=crf / mbtree=1 / crf=20.0 / qcomp=0.60 / qpmin=0 / qpmax=69 / qpstep=4 / vbv_maxrate=62500 / vbv_bufsize=78125 / crf_max=0.0 / nal_hrd=none / filler=0 / ip_ratio=1.40 / aq=1:1.00
Default : Yes
Forced: No
Color range : Limited
Color primaries : BT.709
Transfer characteristics: BT.709
Matrix coefficients : BT.709

Audio #1
ID: 2
Format: AC-3
Format/Info : Audio Coding 3
Format settings, Endianness : Big
Codec ID: A_AC3
Duration: 1 h 45 min
Bit rate mode : Constant
Bit rate: 448 kb/s
Channel(s): 6 channels
Channel positions : Front: L C R, Side: L R, LFE
Sampling rate : 48.0 kHz
Frame rate: 31.250 FPS (1536 SPF)
Bit depth : 16 bits
Compression mode: Lossy
Stream size : 339 MiB (5%)
Title : AC3_5.1_Bluray_Esp
Language: Spanish
Service kind: Complete Main
Default : Yes
Forced: Yes

Audio #2
ID: 3
Format: DTS
Format/Info : Digital Theater Systems
Format profile: MA / Core
Mode: 16
Format settings, Endianness : Big
Codec ID: A_DTS
Duration: 1 h 45 min
Bit rate mode : Variable / Constant
Bit rate: 3 840 kb/s / 1 509 kb/s
Channel(s): 6 channels
Channel positions : Front: L C R, Side: L R, LFE
Sampling rate : 48.0 kHz
Frame rate: 93.750 FPS (512 SPF)
Bit depth : 24 bits
Compression mode: Lossless / Lossy
Stream size : 2.90 GiB (42%)
Title : DTS-HD_5.1_Bluray_Eng
Language: English
Default : No
Forced: No

Text #1
ID: 4
Format: PGS
Muxing mode : zlib
Codec ID: S_HDMV/PGS
Codec ID/Info : Picture based subtitle format used on BDs/HD-DVDs
Duration: 1 h 35 min
Bit rate: 853 b/s
Count of elements : 46
Stream size : 594 KiB (0%)
Title : Sub_Forzados [PGS]
Language: Spanish
Default : Yes
Forced: Yes

Text #2
ID: 5
Format: PGS
Muxing mode : zlib
Codec ID: S_HDMV/PGS
Codec ID/Info : Picture based subtitle format used on BDs/HD-DVDs
Duration: 1 h 36 min
Bit rate: 46.0 kb/s
Count of elements : 2126
Stream size : 31.8 MiB (0%)
Title : Sub_Esp [PGS]
Language: Spanish
Default : No
Forced: No

Text #3
ID: 6
Format: PGS
Muxing mode : zlib
Codec ID: S_HDMV/PGS
Codec ID/Info : Picture based subtitle format used on BDs/HD-DVDs
Duration: 1 h 44 min
Bit rate: 55.1 kb/s
Count of elements : 2650
Stream size : 41.2 MiB (1%)
Title : Sub_Eng [PGS]
Language: English
Default : No
Forced: No

Download Links

CONTRASEÑA PARA DESCOMPRIMIR

APORTES NUEVOS

cinemaniahdd.com

APORTES VIEJOS

CinemaniaHD.org

COMPRA O RENUEVA TU PREMIUM DE UPLOADED DESDE EL SIGUIENTE LINK:

http://ul.to/ref/9821430

SI GUSTAS PUEDES SEGUIRNOS EN LAS REDES SOCIALES

Facebook

Twitter

Post Relacionados