Los 4 fantásticos y Silver Surfer (2007) Full 1080p Latino

Los 4 fantásticos y Silver Surfer (2007) Full 1080p Latino; Mega, Google Drive. La primera familia de superhéroes de Marvel, los Cuatro Fantásticos, se enfrentan a su mayor reto hasta la fecha cuando un enigmático heraldo intergaláctico, Estela Plateada, llega a la Tierra para prepararla para su destrucción. Mientras Estela Plateada recorre el mundo sembrando la destrucción, Reed, Sue, Johnny y Ben deben desentrañar el misterio de dicho personaje, y hacer frente al sorprendente regreso de su mortal enemigo el Doctor Muerte, antes de perder toda esperanza…



Titulo Original Fantastic Four: Rise of the Silver Surfer
Año 2007-06-13
Duracion 1h 32m
Director
Reparto , , , , , , , , , , , , , , , , ,
Productora
Genero
Titulo original Fantastic Four: Rise of the Silver Surfer
Audio Español Latino AC3 5.1 BLURAY - Ingles DTS 5.1 BLURAY
Calidad: Full 1080p Resolucion: 1920x1080p Formato: MKV
Encoder: CinefiloCool Peso: 6.11 GiB Duracion: 1h 32m
Subtitulos: Español Latino PGS
  • No hay video embed

Los 4 Fantasticos y Silver Surfer (2007) Full 1080p Latino.mkv
Format: Matroska
Format version: Version 4 / Version 2
File size : 6.11 GiB
Duration: 1 h 31 min
Overall bit rate: 9 520 kb/s
Movie name: CinemaniaHDD.Net
Encoded date: UTC 2018-10-23 02:51:25 / UTC 2018-10-22T12:00:11Z
Writing application : mkvmerge v25.0.0 ('Prog Noir') 64-bit
Writing library : libebml v1.3.6 + libmatroska v1.4.9 / Lavf57.7.2

Video
ID: 1
Format: AVC
Format/Info : Advanced Video Codec
Format profile: High@L4.1
Format settings : CABAC / 4 Ref Frames
Format settings, CABAC: Yes
Format settings, RefFrames: 4 frames
Codec ID: V_MPEG4/ISO/AVC
Duration: 1 h 31 min
Bit rate: 6 836 kb/s
Width : 1 920 pixels
Height: 1 080 pixels
Display aspect ratio: 16:9
Frame rate mode : Constant
Frame rate: 23.976 (24000/1001) FPS
Color space : YUV
Chroma subsampling: 4:2:0
Bit depth : 8 bits
Scan type : Progressive
Bits/(Pixel*Frame): 0.138
Stream size : 4.39 GiB (72%)
Title : Full HD1080p [Bluray]
Writing library : x264 core 155 r2893 b00bcaf
Encoding settings : cabac=1 / ref=4 / deblock=1:0:0 / analyse=0x3:0x133 / me=esa / subme=10 / psy=1 / psy_rd=1.00:0.00 / mixed_ref=1 / me_range=24 / chroma_me=1 / trellis=2 / 8x8dct=1 / cqm=0 / deadzone=21,11 / fast_pskip=1 / chroma_qp_offset=-2 / threads=34 / lookahead_threads=5 / sliced_threads=0 / nr=0 / decimate=1 / interlaced=0 / bluray_compat=0 / constrained_intra=0 / bframes=8 / b_pyramid=2 / b_adapt=2 / b_bias=0 / direct=3 / weightb=1 / open_gop=0 / weightp=2 / keyint=240 / keyint_min=24 / scenecut=40 / intra_refresh=0 / rc_lookahead=60 / rc=crf / mbtree=1 / crf=20.0 / qcomp=0.60 / qpmin=0 / qpmax=69 / qpstep=4 / vbv_maxrate=62500 / vbv_bufsize=78125 / crf_max=0.0 / nal_hrd=none / filler=0 / ip_ratio=1.40 / aq=1:1.00
Default : Yes
Forced: No
Color range : Limited
Color primaries : BT.709
Transfer characteristics: BT.709
Matrix coefficients : BT.709
Statistics Tags Issue : mkvmerge v25.0.0 ('Prog Noir') 64-bit 2018-10-23 02:51:25 / mkvmerge v25.0.0 ('Prog Noir') 64-bit 2018-10-23 02:51:25 / UTC 2018-10-22T12:00:11Z
FromStats_BitRate : 7016190
FromStats_Duration: 01:31:50.130000000
FromStats_FrameCount: 132111
FromStats_StreamSize: 4832515355

Audio #1
ID: 2
Format: AC-3
Format/Info : Audio Coding 3
Format settings, Endianness : Big
Codec ID: A_AC3
Duration: 1 h 31 min
Bit rate mode : Constant
Bit rate: 448 kb/s
Channel(s): 6 channels
Channel positions : Front: L C R, Side: L R, LFE
Sampling rate : 48.0 kHz
Frame rate: 31.250 FPS (1536 SPF)
Bit depth : 16 bits
Compression mode: Lossy
Delay relative to video : 5 ms
Stream size : 294 MiB (5%)
Title : AC3_5.1_Bluray_Esp
Language: Spanish
Service kind: Complete Main
Default : Yes
Forced: Yes
Statistics Tags Issue : mkvmerge v25.0.0 ('Prog Noir') 64-bit 2018-10-23 02:51:25 / mkvmerge v25.0.0 ('Prog Noir') 64-bit 2018-10-23 02:51:25 / UTC 2018-10-22T12:00:11Z
FromStats_BitRate : 448000
FromStats_Duration: 01:31:42.944000000
FromStats_FrameCount: 171967
FromStats_StreamSize: 308164864

Audio #2
ID: 3
Format: DTS
Format/Info : Digital Theater Systems
Format profile: HRA / Core
Mode: 16
Format settings, Endianness : Big
Codec ID: A_DTS
Duration: 1 h 31 min
Bit rate mode : Constant
Bit rate: 2 046 kb/s / 1 509 kb/s
Channel(s): 6 channels
Channel positions : Front: L C R, Side: L R, LFE
Sampling rate : 48.0 kHz
Frame rate: 93.750 FPS (512 SPF)
Bit depth : 16 bits
Compression mode: Lossy
Stream size : 1.31 GiB (21%)
Title : DTS-HD_5.1_Bluray_Eng
Language: English
Default : No
Forced: No
Statistics Tags Issue : mkvmerge v25.0.0 ('Prog Noir') 64-bit 2018-10-23 02:51:25 / mkvmerge v25.0.0 ('Prog Noir') 64-bit 2018-10-23 02:51:25 / UTC 2018-10-22T12:00:11Z
FromStats_BitRate : 2045999
FromStats_Duration: 01:31:49.131000000
FromStats_FrameCount: 516481
FromStats_StreamSize: 1408960168

Text
ID: 4
Format: PGS
Muxing mode : zlib
Codec ID: S_HDMV/PGS
Codec ID/Info : Picture based subtitle format used on BDs/HD-DVDs
Title : Sub_Esp [PGS]
Language: Spanish
Default : No
Forced: No
Statistics Tags Issue : mkvmerge v25.0.0 ('Prog Noir') 64-bit 2018-10-23 02:51:25 / mkvmerge v25.0.0 ('Prog Noir') 64-bit 2018-10-23 02:51:25 / UTC 2018-10-22T12:00:11Z
FromStats_BitRate : 26742
FromStats_Duration: 01:30:00.812000000
FromStats_FrameCount: 1785
FromStats_StreamSize: 18053719

Menu
00:00:00.000: :Chapter 1
00:09:36.034: :Chapter 2
00:13:41.654: :Chapter 3
00:18:08.212: :Chapter 4
00:23:46.717: :Chapter 5
00:28:37.299: :Chapter 6
00:33:50.779: :Chapter 7
00:38:28.014: :Chapter 8
00:42:26.919: :Chapter 9
00:45:32.230: :Chapter 10
00:50:57.680: :Chapter 11
00:53:58.152: :Chapter 12
00:56:46.945: :Chapter 13
01:01:09.124: :Chapter 14
01:06:37.035: :Chapter 15
01:10:51.831: :Chapter 16
01:16:23.746: :Chapter 17
01:20:15.894: :Chapter 18
01:26:21.968: :Chapter 19

Download Links

CONTRASEÑA PARA DESCOMPRIMIR

APORTES NUEVOS

cinemaniahdd.com

APORTES VIEJOS

CinemaniaHD.org

COMPRA O RENUEVA TU PREMIUM DE UPLOADED DESDE EL SIGUIENTE LINK:

http://ul.to/ref/9821430

SI GUSTAS PUEDES SEGUIRNOS EN LAS REDES SOCIALES

Facebook

Twitter

Post Relacionados