Los increíbles 2 (2018) Full 1080p Latino

Helen tiene que liderar una campaña para que los superhéroes regresen, mientras Bob vive su vida “normal” con Violet, Dash y el bebé Jack-Jack —cuyos superpoderes descubriremos—. Su misión se va a pique cuando aparece un nuevo villano con un brillante plan que lo amenaza todo. Pero los Parr no se amedrentarán y menos teniendo a Frozone de su parte.



Titulo original Incredibles 2
Audio Español Latino AC3 5.1 BLURAY - Ingles DTS 5.1 BLURAY
Calidad: Full 1080p Resolucion: 1920x1080p Formato: MKV
Encoder: Dracarys Peso: 5.16 GiB Duracion: 1h 58m
Subtitulos: Español Latino PGS - Ingles PGS
  • No hay video embed

Format                                 : Matroska
Format version                         : Version 4 / Version 2
File size                              : 5.16 GiB
Duration                               : 1 h 57 min
Overall bit rate                       : 6 264 kb/s
Movie name                             : CinemaniaHDD.net
Encoded date                           : UTC 2018-11-13 23:56:58 / UTC 2018-11-13T14:41:23Z
Writing application                    : mkvmerge v15.0.0 ('Duel with the Devil') 64-bit
Writing library                        : libebml v1.3.5 + libmatroska v1.4.5 / Lavf57.7.2

Video
ID                                     : 1
Format                                 : AVC
Format/Info                            : Advanced Video Codec
Format profile                         : High@L4.1
Format settings                        : CABAC / 4 Ref Frames
Format settings, CABAC                 : Yes
Format settings, RefFrames             : 4 frames
Codec ID                               : V_MPEG4/ISO/AVC
Duration                               : 1 h 57 min
Bit rate                               : 3 990 kb/s
Width                                  : 1 920 pixels
Height                                 : 1 080 pixels
Display aspect ratio                   : 16:9
Frame rate mode                        : Constant
Frame rate                             : 23.976 (24000/1001) FPS
Color space                            : YUV
Chroma subsampling                     : 4:2:0
Bit depth                              : 8 bits
Scan type                              : Progressive
Bits/(Pixel*Frame)                     : 0.080
Stream size                            : 3.28 GiB (64%)
Title                                  : Los increíbles 2 (2018) Full 1080p Latino
Writing library                        : x264 core 148 r2708 86b7198
Encoding settings                      : cabac=1 / ref=4 / deblock=1:0:0 / analyse=0x3:0x133 / me=esa / subme=10 / psy=1 / psy_rd=1.00:0.00 / mixed_ref=1 / me_range=24 / chroma_me=1 / trellis=2 / 8x8dct=1 / cqm=0 / deadzone=21,11 / fast_pskip=1 / chroma_qp_offset=-2 / threads=34 / lookahead_threads=5 / sliced_threads=0 / nr=0 / decimate=1 / interlaced=0 / bluray_compat=0 / constrained_intra=0 / bframes=8 / b_pyramid=2 / b_adapt=2 / b_bias=0 / direct=3 / weightb=1 / open_gop=0 / weightp=2 / keyint=240 / keyint_min=24 / scenecut=40 / intra_refresh=0 / rc_lookahead=60 / rc=crf / mbtree=1 / crf=20.0 / qcomp=0.60 / qpmin=0 / qpmax=69 / qpstep=4 / vbv_maxrate=62500 / vbv_bufsize=78125 / crf_max=0.0 / nal_hrd=none / filler=0 / ip_ratio=1.40 / aq=1:1.00
Language                               : English
Default                                : Yes
Forced                                 : No
Color range                            : Limited
Color primaries                        : BT.709
Transfer characteristics               : BT.709
Matrix coefficients                    : BT.709
Statistics Tags Issue                  : mkvmerge v15.0.0 ('Duel with the Devil') 64-bit 2018-11-13 23:56:58 / mkvmerge v15.0.0 ('Duel with the Devil') 64-bit 2018-11-13 23:56:58 / UTC 2018-11-13T14:41:23Z
FromStats_BitRate                      : 4087009
FromStats_Duration                     : 01:57:50.522000000
FromStats_FrameCount                   : 169523
FromStats_StreamSize                   : 3612161699

Audio #1
ID                                     : 2
Format                                 : AC-3
Format/Info                            : Audio Coding 3
Format settings, Endianness            : Big
Codec ID                               : A_AC3
Duration                               : 1 h 57 min
Bit rate mode                          : Constant
Bit rate                               : 640 kb/s
Channel(s)                             : 6 channels
Channel positions                      : Front: L C R, Side: L R, LFE
Sampling rate                          : 48.0 kHz
Frame rate                             : 31.250 FPS (1536 SPF)
Bit depth                              : 16 bits
Compression mode                       : Lossy
Stream size                            : 539 MiB (10%)
Language                               : Spanish
Service kind                           : Complete Main
Default                                : Yes
Forced                                 : No
Statistics Tags Issue                  : mkvmerge v15.0.0 ('Duel with the Devil') 64-bit 2018-11-13 23:56:58 / mkvmerge v15.0.0 ('Duel with the Devil') 64-bit 2018-11-13 23:56:58 / UTC 2018-11-13T14:41:23Z
FromStats_BitRate                      : 640000
FromStats_Duration                     : 01:57:50.144000000
FromStats_FrameCount                   : 220942
FromStats_StreamSize                   : 565611520

Audio #2
ID                                     : 3
Format                                 : DTS
Format/Info                            : Digital Theater Systems
Mode                                   : 16
Format settings, Endianness            : Big
Codec ID                               : A_DTS
Duration                               : 1 h 57 min
Bit rate mode                          : Constant
Bit rate                               : 1 509 kb/s
Channel(s)                             : 6 channels
Channel positions                      : Front: L C R, Side: L R, LFE
Sampling rate                          : 48.0 kHz
Frame rate                             : 93.750 FPS (512 SPF)
Bit depth                              : 24 bits
Compression mode                       : Lossy
Stream size                            : 1.24 GiB (24%)
Language                               : English
Default                                : No
Forced                                 : No
Statistics Tags Issue                  : mkvmerge v15.0.0 ('Duel with the Devil') 64-bit 2018-11-13 23:56:58 / mkvmerge v15.0.0 ('Duel with the Devil') 64-bit 2018-11-13 23:56:58 / UTC 2018-11-13T14:41:23Z
FromStats_BitRate                      : 1508999
FromStats_Duration                     : 01:57:50.582000000
FromStats_FrameCount                   : 662867
FromStats_StreamSize                   : 1333688404

Text #1
ID                                     : 4
Format                                 : PGS
Muxing mode                            : zlib
Codec ID                               : S_HDMV/PGS
Codec ID/Info                          : Picture based subtitle format used on BDs/HD-DVDs
Language                               : English
Default                                : No
Forced                                 : No
Statistics Tags Issue                  : mkvmerge v15.0.0 ('Duel with the Devil') 64-bit 2018-11-13 23:56:58 / mkvmerge v15.0.0 ('Duel with the Devil') 64-bit 2018-11-13 23:56:58 / UTC 2018-11-13T14:41:23Z
FromStats_BitRate                      : 42635
FromStats_Duration                     : 01:56:10.485000000
FromStats_FrameCount                   : 3521
FromStats_StreamSize                   : 37149155

Text #2
ID                                     : 5
Format                                 : PGS
Muxing mode                            : zlib
Codec ID                               : S_HDMV/PGS
Codec ID/Info                          : Picture based subtitle format used on BDs/HD-DVDs
Language                               : Spanish
Default                                : No
Forced                                 : No
Statistics Tags Issue                  : mkvmerge v15.0.0 ('Duel with the Devil') 64-bit 2018-11-13 23:56:58 / mkvmerge v15.0.0 ('Duel with the Devil') 64-bit 2018-11-13 23:56:58 / UTC 2018-11-13T14:41:23Z
FromStats_BitRate                      : 40146
FromStats_Duration                     : 01:56:09.651000000
FromStats_FrameCount                   : 3526
FromStats_StreamSize                   : 34976093

Menu
00:00:00.000                           : :Chapter 1
00:03:22.369                           : :Chapter 2
00:08:53.658                           : :Chapter 3
00:09:36.826                           : :Chapter 4
00:13:38.318                           : :Chapter 5
00:15:44.819                           : :Chapter 6
00:21:19.820                           : :Chapter 7
00:23:28.365                           : :Chapter 8
00:27:08.877                           : :Chapter 9
00:28:59.655                           : :Chapter 10
00:35:11.026                           : :Chapter 11
00:39:07.971                           : :Chapter 12
00:42:44.020                           : :Chapter 13
00:43:42.537                           : :Chapter 14
00:47:35.519                           : :Chapter 15
00:48:54.056                           : :Chapter 16
00:54:15.753                           : :Chapter 17
00:56:16.206                           : :Chapter 18
01:00:58.905                           : :Chapter 19
01:02:02.093                           : :Chapter 20
01:06:55.720                           : :Chapter 21
01:09:18.446                           : :Chapter 22
01:11:28.451                           : :Chapter 23
01:12:37.937                           : :Chapter 24
01:14:39.517                           : :Chapter 25
01:18:01.218                           : :Chapter 26
01:20:32.786                           : :Chapter 27
01:25:02.055                           : :Chapter 28
01:27:59.775                           : :Chapter 29
01:31:54.259                           : :Chapter 30
01:33:26.810                           : :Chapter 31
01:36:25.613                           : :Chapter 32
01:37:45.568                           : :Chapter 33
01:43:57.314                           : :Chapter 34
01:45:36.330                           : :Chapter 35
01:47:30.486                           : :Chapter 36

 

Download Links

CONTRASEÑA PARA DESCOMPRIMIR

APORTES NUEVOS

cinemaniahdd.com

APORTES VIEJOS

CinemaniaHD.org

COMPRA O RENUEVA TU PREMIUM DE UPLOADED DESDE EL SIGUIENTE LINK:

http://ul.to/ref/9821430

SI GUSTAS PUEDES SEGUIRNOS EN LAS REDES SOCIALES

Facebook

Twitter

Post Relacionados