Los Increíbles 2 (2018) Web-DL 1080p Latino

Los Increíbles 2 (2018) Web-DL 1080p Latino; Mega, Google Drive. Helen tiene que liderar una campaña para que los superhéroes regresen, mientras Bob vive su vida “normal” con Violet, Dash y el bebé Jack-Jack —cuyos superpoderes descubriremos—. Su misión se va a pique cuando aparece un nuevo villano con un brillante plan que lo amenaza todo. Pero los Parr no se amedrentarán y menos teniendo a Frozone de su parte.



Titulo original Incredibles 2
Audio Español Latino AC3 2.0 iTunes - Ingles AC3 5.1 iTunes
Calidad: WEBDL Resolucion: 1920x804p Formato: MKV
Encoder: CMRG Peso: 4.23 GiB Duracion: 1h 58m
Subtitulos: Español Latino SRT- FORZADOS SRT
  • No hay video embed

Los Increibles 2 (2018) Web-DL 1080p Latino.mkv
Format: Matroska
Format version: Version 4 / Version 2
File size : 4.23 GiB
Duration: 1 h 57 min
Overall bit rate: 5 145 kb/s
Movie name: CinemaniaHDD.Net
Encoded date: UTC 2018-10-23 06:04:06
Writing application : mkvmerge v25.0.0 ('Prog Noir') 64-bit
Writing library : libebml v1.3.6 + libmatroska v1.4.9

Video
ID: 1
Format: AVC
Format/Info : Advanced Video Codec
Format profile: High@L4
Format settings : CABAC / 5 Ref Frames
Format settings, CABAC: Yes
Format settings, RefFrames: 5 frames
Codec ID: V_MPEG4/ISO/AVC
Duration: 1 h 57 min
Bit rate: 4 503 kb/s
Width : 1 920 pixels
Height: 804 pixels
Display aspect ratio: 2.40:1
Frame rate mode : Constant
Frame rate: 23.976 (23976/1000) FPS
Color space : YUV
Chroma subsampling: 4:2:0
Bit depth : 8 bits
Scan type : Progressive
Bits/(Pixel*Frame): 0.122
Stream size : 3.71 GiB (88%)
Title : HD1080p [Web-DL]
Language: English
Default : Yes
Forced: No
Color range : Limited
Color primaries : BT.709
Transfer characteristics: BT.709
Matrix coefficients : BT.709

Audio #1
ID: 2
Format: AC-3
Format/Info : Audio Coding 3
Format settings, Endianness : Big
Codec ID: A_AC3
Duration: 1 h 57 min
Bit rate mode : Constant
Bit rate: 256 kb/s
Channel(s): 2 channels
Channel positions : Front: L R
Sampling rate : 48.0 kHz
Frame rate: 31.250 FPS (1536 SPF)
Bit depth : 16 bits
Compression mode: Lossy
Delay relative to video : -40 ms
Stream size : 216 MiB (5%)
Title : AC3_2.0_Itunes_Esp
Language: Spanish
Service kind: Complete Main
Default : Yes
Forced: Yes

Audio #2
ID: 3
Format: AC-3
Format/Info : Audio Coding 3
Format settings, Endianness : Big
Codec ID: A_AC3
Duration: 1 h 57 min
Bit rate mode : Constant
Bit rate: 384 kb/s
Channel(s): 6 channels
Channel positions : Front: L C R, Side: L R, LFE
Sampling rate : 48.0 kHz
Frame rate: 31.250 FPS (1536 SPF)
Bit depth : 16 bits
Compression mode: Lossy
Delay relative to video : -42 ms
Stream size : 324 MiB (7%)
Title : AC3_5.1_Itunes_Eng
Language: English
Service kind: Complete Main
Default : No
Forced: No

Text #1
ID: 4
Format: UTF-8
Codec ID: S_TEXT/UTF8
Codec ID/Info : UTF-8 Plain Text
Duration: 46 min 8 s
Bit rate: 1 b/s
Count of elements : 13
Stream size : 503 Bytes (0%)
Title : Sub_Forzados
Language: Spanish
Default : Yes
Forced: Yes

Text #2
ID: 5
Format: UTF-8
Codec ID: S_TEXT/UTF8
Codec ID/Info : UTF-8 Plain Text
Duration: 1 h 46 min
Bit rate: 71 b/s
Count of elements : 1757
Stream size : 55.8 KiB (0%)
Title : Sub_Esp
Language: Spanish
Default : No
Forced: No

Menu
00:00:00.000: en:Tony Interrogation
00:03:22.000: en:Incredibles vs Underminer
00:08:52.000: en:Chewed Out
00:09:36.000: en:Family Dinner
00:13:38.000: en:Poolside
00:15:44.000: en:Deavor Meets Supers
00:21:19.000: en:Pillow Talk
00:23:27.000: en:New House
00:27:08.000: en:Where's Mom?
00:28:59.000: en:Runaway Train
00:35:11.000: en:Raccoon Fight
00:39:07.000: en:Helen Checks In
00:42:44.000: en:Tony Forgets
00:43:41.000: en:Air Rescue
00:47:35.000: en:Breakfast Blowup
00:48:52.000: en:Triumph Return
00:54:15.000: en:Vi Embarrassed
00:56:16.000: en:Tracking Screenslaver
01:00:58.000: en:Screenslaver Caught
01:02:02.000: en:Breaking Point
01:06:55.000: en:E The Babysitter
01:09:18.000: en:Helen Reviews Footage
01:11:28.000: en:Bob's Apology
01:12:37.000: en:Helen Slips Away
01:14:39.000: en:Auntie E
01:18:00.000: en:Cold Room
01:20:32.000: en:House Attack
01:25:01.000: en:Kids Alone
01:27:59.000: en:Super Signing
01:31:54.000: en:Kids To The Rescue
01:33:26.000: en:Trap Is Sprung
01:36:24.000: en:Battle Royale
01:37:45.000: en:Save The Day
01:43:57.000: en:Resolution
01:45:36.000: en:Epilogue
01:47:30.000: en:End Credits

Download Links

CONTRASEÑA PARA DESCOMPRIMIR

APORTES NUEVOS

cinemaniahdd.com

APORTES VIEJOS

CinemaniaHD.org

COMPRA O RENUEVA TU PREMIUM DE UPLOADED DESDE EL SIGUIENTE LINK:

http://ul.to/ref/9821430

SI GUSTAS PUEDES SEGUIRNOS EN LAS REDES SOCIALES

Facebook

Twitter

Post Relacionados