Los tres chiflados (2012) Full 1080p Latino

Es inspirada en la serie de 190 cortos, de unos 16 minutos, ‘The Three Stooges’ que estrenó Columbia Pictures entre 1934 y 1958. Los protagonistas son tres recién nacidos que viven en un orfanato.



Titulo Original The Three Stooges
Año 2012-04-13
Duracion 1h 32m
Director
Reparto , , , , , , , , , , , , , , , , , , , , , , , , , , , , , , , , , , , , , , , , , , , , , , , , , , , , , , , , , , , , , , , , , , , , , , , , , , , , , , , , , , , ,
Productora
Genero
Titulo original The Three Stooges
Audio Español Latino AC3 5.1 BLURAY - Ingles DTS 5.1 BLURAY
Calidad: Full 1080p Resolucion: 1920x1080p Formato: MKV
Encoder: Dracarys Peso: 9.34 GiB Duracion: 1h 32m
Subtitulos: Español Latino PGS - Ingles PGS
  • No hay video embed

Format                                   : Matroska
Format version                           : Version 4 / Version 2
File size                                : 9.34 GiB
Duration                                 : 1 h 32 min
Overall bit rate                         : 14.5 Mb/s
Movie name                               : CinemaniaHDD.net
Encoded date                             : UTC 2018-12-05 13:05:12 / UTC 2018-12-03T01:05:27Z
Writing application                      : mkvmerge v15.0.0 ('Duel with the Devil') 64-bit
Writing library                          : libebml v1.3.5 + libmatroska v1.4.5 / Lavf57.7.2

Video
ID                                       : 1
Format                                   : AVC
Format/Info                              : Advanced Video Codec
Format profile                           : High@L4.1
Format settings                          : CABAC / 4 Ref Frames
Format settings, CABAC                   : Yes
Format settings, RefFrames               : 4 frames
Codec ID                                 : V_MPEG4/ISO/AVC
Duration                                 : 1 h 32 min
Bit rate                                 : 12.3 Mb/s
Width                                    : 1 920 pixels
Height                                   : 1 080 pixels
Display aspect ratio                     : 16:9
Frame rate mode                          : Constant
Frame rate                               : 23.976 (24000/1001) FPS
Color space                              : YUV
Chroma subsampling                       : 4:2:0
Bit depth                                : 8 bits
Scan type                                : Progressive
Bits/(Pixel*Frame)                       : 0.247
Stream size                              : 7.90 GiB (85%)
Writing library                          : x264 core 148 r2708 86b7198
Encoding settings                        : cabac=1 / ref=4 / deblock=1:0:0 / analyse=0x3:0x133 / me=esa / subme=10 / psy=1 / psy_rd=1.00:0.00 / mixed_ref=1 / me_range=24 / chroma_me=1 / trellis=2 / 8x8dct=1 / cqm=0 / deadzone=21,11 / fast_pskip=1 / chroma_qp_offset=-2 / threads=34 / lookahead_threads=5 / sliced_threads=0 / nr=0 / decimate=1 / interlaced=0 / bluray_compat=0 / constrained_intra=0 / bframes=8 / b_pyramid=2 / b_adapt=2 / b_bias=0 / direct=3 / weightb=1 / open_gop=0 / weightp=2 / keyint=240 / keyint_min=24 / scenecut=40 / intra_refresh=0 / rc_lookahead=60 / rc=crf / mbtree=1 / crf=20.0 / qcomp=0.60 / qpmin=0 / qpmax=69 / qpstep=4 / vbv_maxrate=62500 / vbv_bufsize=78125 / crf_max=0.0 / nal_hrd=none / filler=0 / ip_ratio=1.40 / aq=1:1.00
Language                                 : English
Default                                  : Yes
Forced                                   : No
Color range                              : Limited
Color primaries                          : BT.709
Transfer characteristics                 : BT.709
Matrix coefficients                      : BT.709
Statistics Tags Issue                    : mkvmerge v15.0.0 ('Duel with the Devil') 64-bit 2018-12-05 13:05:12 / mkvmerge v15.0.0 ('Duel with the Devil') 64-bit 2018-12-05 13:05:12 / UTC 2018-12-03T01:05:27Z
FromStats_BitRate                        : 12536580
FromStats_Duration                       : 01:32:04.478000000
FromStats_FrameCount                     : 132455
FromStats_StreamSize                     : 8657258198

Audio #1
ID                                       : 2
Format                                   : AC-3
Format/Info                              : Audio Coding 3
Format settings, Endianness              : Big
Codec ID                                 : A_AC3
Duration                                 : 1 h 32 min
Bit rate mode                            : Constant
Bit rate                                 : 448 kb/s
Channel(s)                               : 6 channels
Channel positions                        : Front: L C R, Side: L R, LFE
Sampling rate                            : 48.0 kHz
Frame rate                               : 31.250 FPS (1536 SPF)
Bit depth                                : 16 bits
Compression mode                         : Lossy
Stream size                              : 295 MiB (3%)
Language                                 : Spanish
Service kind                             : Complete Main
Default                                  : Yes
Forced                                   : No
Statistics Tags Issue                    : mkvmerge v15.0.0 ('Duel with the Devil') 64-bit 2018-12-05 13:05:12 / mkvmerge v15.0.0 ('Duel with the Devil') 64-bit 2018-12-05 13:05:12 / UTC 2018-12-03T01:05:27Z
FromStats_BitRate                        : 448000
FromStats_Duration                       : 01:32:04.544000000
FromStats_FrameCount                     : 172642
FromStats_StreamSize                     : 309374464

Audio #2
ID                                       : 3
Format                                   : DTS
Format/Info                              : Digital Theater Systems
Mode                                     : 16
Format settings, Endianness              : Big
Codec ID                                 : A_DTS
Duration                                 : 1 h 32 min
Bit rate mode                            : Constant
Bit rate                                 : 1 509 kb/s
Channel(s)                               : 6 channels
Channel positions                        : Front: L C R, Side: L R, LFE
Sampling rate                            : 48.0 kHz
Frame rate                               : 93.750 FPS (512 SPF)
Bit depth                                : 24 bits
Compression mode                         : Lossy
Stream size                              : 994 MiB (10%)
Language                                 : English
Default                                  : No
Forced                                   : No
Statistics Tags Issue                    : mkvmerge v15.0.0 ('Duel with the Devil') 64-bit 2018-12-05 13:05:12 / mkvmerge v15.0.0 ('Duel with the Devil') 64-bit 2018-12-05 13:05:12 / UTC 2018-12-03T01:05:27Z
FromStats_BitRate                        : 1509000
FromStats_Duration                       : 01:32:04.512000000
FromStats_FrameCount                     : 517923
FromStats_StreamSize                     : 1042061076

Text #1
ID                                       : 4
Format                                   : PGS
Muxing mode                              : zlib
Codec ID                                 : S_HDMV/PGS
Codec ID/Info                            : Picture based subtitle format used on BDs/HD-DVDs
Language                                 : English
Default                                  : No
Forced                                   : No
Statistics Tags Issue                    : mkvmerge v15.0.0 ('Duel with the Devil') 64-bit 2018-12-05 13:05:12 / mkvmerge v15.0.0 ('Duel with the Devil') 64-bit 2018-12-05 13:05:12 / UTC 2018-12-03T01:05:27Z
FromStats_BitRate                        : 59236
FromStats_Duration                       : 01:31:22.811000000
FromStats_FrameCount                     : 3739
FromStats_StreamSize                     : 40597666

Text #2
ID                                       : 5
Format                                   : PGS
Muxing mode                              : zlib
Codec ID                                 : S_HDMV/PGS
Codec ID/Info                            : Picture based subtitle format used on BDs/HD-DVDs
Language                                 : Spanish
Default                                  : No
Forced                                   : No
Statistics Tags Issue                    : mkvmerge v15.0.0 ('Duel with the Devil') 64-bit 2018-12-05 13:05:12 / mkvmerge v15.0.0 ('Duel with the Devil') 64-bit 2018-12-05 13:05:12 / UTC 2018-12-03T01:05:27Z
FromStats_BitRate                        : 45217
FromStats_Duration                       : 01:31:31.820000000
FromStats_FrameCount                     : 2928
FromStats_StreamSize                     : 31041101

Menu
00:00:00.000                             : :Chapter 1
00:02:58.220                             : :Chapter 2
00:05:55.146                             : :Chapter 3
00:11:52.754                             : :Chapter 4
00:14:58.272                             : :Chapter 5
00:17:11.447                             : :Chapter 6
00:20:08.332                             : :Chapter 7
00:23:23.193                             : :Chapter 8
00:25:55.637                             : :Chapter 9
00:34:39.619                             : :Chapter 10
00:39:31.828                             : :Chapter 11
00:43:33.486                             : :Chapter 12
00:47:13.331                             : :Chapter 13
00:50:10.257                             : :Chapter 14
00:53:45.347                             : :Chapter 15
00:57:48.173                             : :Chapter 16
01:00:19.199                             : :Chapter 17
01:04:39.334                             : :Chapter 18
01:09:12.148                             : :Chapter 19
01:14:28.339                             : :Chapter 20
01:16:54.735                             : :Chapter 21
01:20:12.808                             : :Chapter 22
01:25:32.669                             : :Chapter 23
01:26:19.049                             : :Chapter 24

 

Download Links

CONTRASEÑA PARA DESCOMPRIMIR

APORTES NUEVOS

cinemaniahdd.com

APORTES VIEJOS

CinemaniaHD.org

COMPRA O RENUEVA TU PREMIUM DE UPLOADED DESDE EL SIGUIENTE LINK:

http://ul.to/ref/9821430

SI GUSTAS PUEDES SEGUIRNOS EN LAS REDES SOCIALES

Facebook

Twitter

Post Relacionados