Malos Momentos en el Hotel Royale (2018) FULL HD 1080p Latino

Finales de los años 70. El Royale es un deteriorado hotel con un oscuro pasado, situado literalmente entre la frontera de California y Nevada. Allí se reúnen siete desconocidos, cada uno con un secreto que ocultar. Durante el transcurso de una fatídica noche, todos tendrán una última oportunidad de redención… antes de que todo se vaya al infierno.

Película de suspense escrita y dirigida por Drew Goddard (La cabaña en el bosque) cuyo reparto está encabezado por Chris Hemsworth (Thor: Ragnarok), Dakota Johnson (Cincuenta sombras liberadas), Jon Hamm (Baby driver), Cynthia Erivo (Viudas), Cailee Spaeny (Pacific Rim: Insurrección), Lewis Pullman (Lean on Pete), Nick Offerman (Fargo) y Jeff Bridges (Kingsman: El círculo de oro).



Titulo original Bad Times at the El Royale
Audio Español Latino AC3 5.1 BLURAY - Ingles DTS 5.1 BLURAY
Calidad: Full 1080p Resolucion: 1920x1080 Formato: MKV
Encoder: chesse92 Peso: 5.70 GiB Duracion: 2h 22m
Subtitulos: Español Latino PGS - Ingles PGS
  • No hay video embed

Bad Times at the El Royale (2018) FULL HD 1080p Latino.mkv
Format: Matroska
Format version: Version 4
File size : 5.70 GiB
Duration: 2 h 21 min
Overall bit rate: 5 759 kb/s
Movie name: CinemaniaHDD.net
Encoded date: UTC 2018-12-24 17:55:15 / UTC 2018-12-24T00:36:09Z
Writing application : mkvmerge v28.2.0 ('The Awakening') 64-bit
Writing library : libebml v1.3.6 + libmatroska v1.4.9 / Lavf57.7.2

Video
ID: 1
Format: AVC
Format/Info : Advanced Video Codec
Format profile: High@L4.1
Format settings : CABAC / 4 Ref Frames
Format settings, CABAC: Yes
Format settings, ReFrames : 4 frames
Codec ID: V_MPEG4/ISO/AVC
Duration: 2 h 21 min
Bit rate: 3 783 kb/s
Width : 1 920 pixels
Height: 1 080 pixels
Display aspect ratio: 16:9
Frame rate mode : Constant
Frame rate: 23.976 (24000/1001) FPS
Color space : YUV
Chroma subsampling: 4:2:0
Bit depth : 8 bits
Scan type : Progressive
Bits/(Pixel*Frame): 0.076
Stream size : 3.74 GiB (66%)
Writing library : x264 core 155 r2901 7d0ff22
Encoding settings : cabac=1 / ref=4 / deblock=1:0:0 / analyse=0x3:0x133 / me=esa / subme=10 / psy=1 / psy_rd=1.00:0.00 / mixed_ref=1 / me_range=24 / chroma_me=1 / trellis=2 / 8x8dct=1 / cqm=0 / deadzone=21,11 / fast_pskip=1 / chroma_qp_offset=-2 / threads=34 / lookahead_threads=5 / sliced_threads=0 / nr=0 / decimate=1 / interlaced=0 / bluray_compat=0 / constrained_intra=0 / bframes=8 / b_pyramid=2 / b_adapt=2 / b_bias=0 / direct=3 / weightb=1 / open_gop=0 / weightp=2 / keyint=240 / keyint_min=24 / scenecut=40 / intra_refresh=0 / rc_lookahead=60 / rc=crf / mbtree=1 / crf=20.0 / qcomp=0.60 / qpmin=0 / qpmax=69 / qpstep=4 / vbv_maxrate=62500 / vbv_bufsize=78125 / crf_max=0.0 / nal_hrd=none / filler=0 / ip_ratio=1.40 / aq=1:1.00
Default : Yes
Forced: No
Color range : Limited
Color primaries : BT.709
Transfer characteristics: BT.709
Matrix coefficients : BT.709

Audio #1
ID: 2
Format: AC-3
Format/Info : Audio Coding 3
Commercial name : Dolby Digital
Codec ID: A_AC3
Duration: 2 h 21 min
Bit rate mode : Constant
Bit rate: 448 kb/s
Channel(s): 6 channels
Channel layout: L R C LFE Ls Rs
Sampling rate : 48.0 kHz
Frame rate: 31.250 FPS (1536 SPF)
Bit depth : 16 bits
Compression mode: Lossy
Stream size : 454 MiB (8%)
Title : Surround
Language: Spanish
Service kind: Complete Main
Default : Yes
Forced: No

Audio #2
ID: 3
Format: DTS ES
Format/Info : Digital Theater Systems
Commercial name : DTS-ES Matrix
Codec ID: A_DTS
Duration: 2 h 21 min
Bit rate mode : Constant
Bit rate: 1 509 kb/s
Channel(s): 6 channels
Channel(s)_Original : 7 channels
Channel layout: C L R Ls Rs Cb LFE
Sampling rate : 48.0 kHz
Frame rate: 93.750 FPS (512 SPF)
Bit depth : 24 bits
Compression mode: Lossy
Stream size : 1.49 GiB (26%)
Title : Surround
Language: English
Default : No
Forced: No

Text #1
ID: 4
Format: PGS
Muxing mode : zlib
Codec ID: S_HDMV/PGS
Codec ID/Info : Picture based subtitle format used on BDs/HD-DVDs
Duration: 2 h 17 min
Bit rate: 23.5 kb/s
Count of elements : 2532
Stream size : 23.1 MiB (0%)
Language: Spanish
Default : No
Forced: No

Text #2
ID: 5
Format: PGS
Muxing mode : zlib
Codec ID: S_HDMV/PGS
Codec ID/Info : Picture based subtitle format used on BDs/HD-DVDs
Duration: 2 h 18 min
Bit rate: 31.1 kb/s
Count of elements : 3422
Stream size : 30.7 MiB (1%)
Language: English
Default : No
Forced: No

Text #3
ID: 6
Format: UTF-8
Codec ID: S_TEXT/UTF8
Codec ID/Info : UTF-8 Plain Text
Duration: 2 h 14 min
Bit rate: 38 b/s
Count of elements : 1265
Stream size : 37.8 KiB (0%)
Language: Spanish
Default : Yes
Forced: Yes

Text #4
ID: 7
Format: UTF-8
Codec ID: S_TEXT/UTF8
Codec ID/Info : UTF-8 Plain Text
Duration: 24 min 51 s
Bit rate: 0 b/s
Count of elements : 2
Stream size : 32.0 Bytes (0%)
Language: Spanish
Default : No
Forced: No

Download Links

CONTRASEÑA PARA DESCOMPRIMIR

APORTES NUEVOS

cinemaniahdd.com

APORTES VIEJOS

CinemaniaHD.org

COMPRA O RENUEVA TU PREMIUM DE UPLOADED DESDE EL SIGUIENTE LINK:

http://ul.to/ref/9821430

SI GUSTAS PUEDES SEGUIRNOS EN LAS REDES SOCIALES

Facebook

Twitter

Post Relacionados