Malos tiempos en el Royale (2018) WEBDL 1080p Latino

Finales de los años 70, siete desconocidos, cada uno con su propio secreto, se reúnen en El Royale, un ruinoso hotel con un oscuro pasado. En el transcurso de una fatídica noche, todos tendrán su oportunidad de redención… antes de que todo se vaya al infierno.



Titulo original Bad Times at the El Royale
Audio Español Latino AC3 5.1 iTunes - Ingles AC3 5.1 iTunes
Calidad: WEBDL Resolucion: 1920x804 Formato: MKV
Encoder: CMRG Peso: 5.27 GiB Duracion: 2h 22m
Subtitulos: Español Latino SRT- FORZADOS SRT
  • No hay video embed

Bad Times at the El Royale 2018 1080p WEB-DL Latino.mkv
Format: Matroska
Format version: Version 4
File size : 5.27 GiB
Duration: 2 h 22 min
Overall bit rate: 5 304 kb/s
Movie name: Cinemaniahdd.net
Encoded date: UTC 2018-12-18 13:42:17
Writing application : mkvmerge v28.2.0 ('The Awakening') 64-bit
Writing library : libebml v1.3.6 + libmatroska v1.4.9

Video
ID: 1
Format: AVC
Format/Info : Advanced Video Codec
Format profile: High@L4
Format settings : CABAC / 5 Ref Frames
Format settings, CABAC: Yes
Format settings, ReFrames : 5 frames
Codec ID: V_MPEG4/ISO/AVC
Duration: 2 h 22 min
Bit rate: 4 537 kb/s
Width : 1 920 pixels
Height: 804 pixels
Display aspect ratio: 2.40:1
Frame rate mode : Constant
Frame rate: 23.976 (24000/1001) FPS
Color space : YUV
Chroma subsampling: 4:2:0
Bit depth : 8 bits
Scan type : Progressive
Bits/(Pixel*Frame): 0.123
Stream size : 4.51 GiB (86%)
Language: English
Default : Yes
Forced: No
Color range : Limited
Color primaries : BT.709
Transfer characteristics: BT.709
Matrix coefficients : BT.709

Audio #1
ID: 2
Format: AC-3
Format/Info : Audio Coding 3
Commercial name : Dolby Digital
Codec ID: A_AC3
Duration: 2 h 21 min
Bit rate mode : Constant
Bit rate: 384 kb/s
Channel(s): 6 channels
Channel layout: L R C LFE Ls Rs
Sampling rate : 48.0 kHz
Frame rate: 31.250 FPS (1536 SPF)
Bit depth : 16 bits
Compression mode: Lossy
Delay relative to video : -43 ms
Stream size : 389 MiB (7%)
Language: Spanish
Service kind: Complete Main
Default : Yes
Forced: No

Audio #2
ID: 3
Format: AC-3
Format/Info : Audio Coding 3
Commercial name : Dolby Digital
Codec ID: A_AC3
Duration: 2 h 21 min
Bit rate mode : Constant
Bit rate: 384 kb/s
Channel(s): 6 channels
Channel layout: L R C LFE Ls Rs
Sampling rate : 48.0 kHz
Frame rate: 31.250 FPS (1536 SPF)
Bit depth : 16 bits
Compression mode: Lossy
Delay relative to video : -43 ms
Stream size : 389 MiB (7%)
Language: English
Service kind: Complete Main
Default : No
Forced: No

Text #1
ID: 4
Format: UTF-8
Codec ID: S_TEXT/UTF8
Codec ID/Info : UTF-8 Plain Text
Duration: 2 h 14 min
Bit rate: 38 b/s
Count of elements : 1265
Stream size : 37.8 KiB (0%)
Language: Spanish
Default : No
Forced: No

Text #2
ID: 5
Format: UTF-8
Codec ID: S_TEXT/UTF8
Codec ID/Info : UTF-8 Plain Text
Duration: 24 min 52 s
Bit rate: 0 b/s
Count of elements : 2
Stream size : 32.0 Bytes (0%)
Language: Spanish
Default : Yes
Forced: No

Menu
00:00:00.000: en:Chapter 01
00:04:18.591: en:Chapter 02
00:19:20.993: en:Chapter 03
00:34:31.737: en:Chapter 04
00:49:23.712: en:Chapter 05
00:51:18.868: en:Chapter 06
01:16:00.474: en:Chapter 07
01:37:12.370: en:Chapter 08
02:03:55.723: en:Chapter 09
02:14:08.043: en:Chapter 10
02:15:44.431: en:Chapter 11

Download Links

CONTRASEÑA PARA DESCOMPRIMIR

APORTES NUEVOS

cinemaniahdd.com

APORTES VIEJOS

CinemaniaHD.org

COMPRA O RENUEVA TU PREMIUM DE UPLOADED DESDE EL SIGUIENTE LINK:

http://ul.to/ref/9821430

SI GUSTAS PUEDES SEGUIRNOS EN LAS REDES SOCIALES

Facebook

Twitter

Post Relacionados