Mary Shelley (2017) 1080p Latino

Descargar Mary Shelley (2017) 1080p Latino, Mega, Google Drive. Será siempre recordada por ser la escritora que creó a Frankenstein. Criada por un filósofo de renombre (Stephen Dillane) en el Londres del siglo XVIII, Mary Wollstonecraft Godwin (Elle Fanning) es una adolescente soñadora decidida a dejar huella en el mundo. Un día conoce al brillante poeta Percy Shelley (Douglas Booth) con el que empezara una aventura amorosa marcada por la pasión y la tragedia, algo que transformará a Mary y la impulsará a escribir su obra maestra gótica.



Titulo Original Mary Shelley
Año 2018-04-22
Duracion 2h 0m
Director
Reparto , , , , , , , , , , , ,
Productora
Genero
Titulo original Mary Shelley
Audio Español Latino AC3 2.0 DVD - Ingles AC3 5.1 BLURAY
Calidad: 1080p Resolucion: 1920x808p Formato: MKV
Encoder: CinemaniaHD Peso: 3.44 GiB Duracion: 2h 0m
Subtitulos: Español Latino SRT - Ingles SRT
  • No hay video embed

Mary Shelley (2017) 1080p Latino.mkv
Format: Matroska
Format version: Version 4
File size : 3.44 GiB
Duration: 2 h 0 min
Overall bit rate: 4 088 kb/s
Movie name: CinemaniaHDD.Net
Encoded date: UTC 2018-12-03 04:57:48
Writing application : mkvmerge v28.2.0 ('The Awakening') 64-bit
Writing library : libebml v1.3.6 + libmatroska v1.4.9

Video
ID: 1
Format: AVC
Format/Info : Advanced Video Codec
Format profile: High@L4.1
Format settings : CABAC / 5 Ref Frames
Format settings, CABAC: Yes
Format settings, ReFrames : 5 frames
Codec ID: V_MPEG4/ISO/AVC
Duration: 2 h 0 min
Bit rate: 3 500 kb/s
Width : 1 920 pixels
Height: 808 pixels
Display aspect ratio: 2.40:1
Frame rate mode : Constant
Frame rate: 23.976 (24000/1001) FPS
Color space : YUV
Chroma subsampling: 4:2:0
Bit depth : 8 bits
Scan type : Progressive
Bits/(Pixel*Frame): 0.094
Stream size : 2.85 GiB (83%)
Title : HD1080p [Bluray]
Writing library : x264 core 155 r2901 7d0ff22
Encoding settings : cabac=1 / ref=5 / deblock=1:0:0 / analyse=0x3:0x113 / me=hex / subme=8 / psy=1 / psy_rd=1.00:0.00 / mixed_ref=1 / me_range=16 / chroma_me=1 / trellis=2 / 8x8dct=1 / cqm=0 / deadzone=21,11 / fast_pskip=1 / chroma_qp_offset=-2 / threads=25 / lookahead_threads=4 / sliced_threads=0 / nr=0 / decimate=1 / interlaced=0 / bluray_compat=0 / constrained_intra=0 / bframes=3 / b_pyramid=2 / b_adapt=1 / b_bias=0 / direct=3 / weightb=1 / open_gop=0 / weightp=2 / keyint=240 / keyint_min=24 / scenecut=40 / intra_refresh=0 / rc_lookahead=50 / rc=abr / mbtree=1 / bitrate=3500 / ratetol=1.0 / qcomp=0.60 / qpmin=0 / qpmax=69 / qpstep=4 / vbv_maxrate=62500 / vbv_bufsize=78125 / nal_hrd=none / filler=0 / ip_ratio=1.40 / aq=1:1.00
Default : Yes
Forced: Yes
Color range : Limited
Color primaries : BT.709
Transfer characteristics: BT.709
Matrix coefficients : BT.709

Audio #1
ID: 2
Format: AC-3
Format/Info : Audio Coding 3
Commercial name : Dolby Digital
Codec ID: A_AC3
Duration: 2 h 0 min
Bit rate mode : Constant
Bit rate: 256 kb/s
Channel(s): 2 channels
Channel layout: L R
Sampling rate : 48.0 kHz
Frame rate: 31.250 FPS (1536 SPF)
Bit depth : 16 bits
Compression mode: Lossy
Delay relative to video : -5 ms
Stream size : 221 MiB (6%)
Title : AC3_2.0_DVD_Esp
Language: Spanish
Service kind: Complete Main
Default : Yes
Forced: Yes

Audio #2
ID: 3
Format: AC-3
Format/Info : Audio Coding 3
Commercial name : Dolby Digital
Codec ID: A_AC3
Duration: 2 h 0 min
Bit rate mode : Constant
Bit rate: 448 kb/s
Channel(s): 6 channels
Channel layout: L R C LFE Ls Rs
Sampling rate : 48.0 kHz
Frame rate: 31.250 FPS (1536 SPF)
Bit depth : 16 bits
Compression mode: Lossy
Stream size : 386 MiB (11%)
Title : AC3_5.1_Bluray_Eng
Language: English
Service kind: Complete Main
Default : No
Forced: No

Text #1
ID: 4
Format: UTF-8
Codec ID: S_TEXT/UTF8
Codec ID/Info : UTF-8 Plain Text
Duration: 1 h 52 min
Bit rate: 58 b/s
Count of elements : 1298
Stream size : 48.5 KiB (0%)
Title : Sub_Esp
Language: Spanish
Default : No
Forced: No

Text #2
ID: 5
Format: UTF-8
Codec ID: S_TEXT/UTF8
Codec ID/Info : UTF-8 Plain Text
Duration: 1 h 51 min
Bit rate: 53 b/s
Count of elements : 1331
Stream size : 43.4 KiB (0%)
Title : Sub_Eng
Language: English
Default : No
Forced: No

Menu
00:00:00.000: :00:00:00.000
00:09:42.123: :00:09:42.040
00:19:28.668: :00:19:28.584
00:28:50.854: :00:28:50.771
00:38:34.229: :00:38:34.187
00:48:46.882: :00:48:46.882
00:57:23.774: :00:57:23.774
01:07:02.602: :01:07:02.602
01:15:28.107: :01:15:27.982
01:25:55.275: :01:25:55.150
01:35:42.070: :01:35:42.070
01:44:02.236: :01:44:02.153

Download Links

CONTRASEÑA PARA DESCOMPRIMIR

APORTES NUEVOS

cinemaniahdd.com

APORTES VIEJOS

CinemaniaHD.org

COMPRA O RENUEVA TU PREMIUM DE UPLOADED DESDE EL SIGUIENTE LINK:

http://ul.to/ref/9821430

SI GUSTAS PUEDES SEGUIRNOS EN LAS REDES SOCIALES

Facebook

Twitter

Post Relacionados