Mary y la flor de la Bruja (2017) HD 1080p Latino

Mary es una niña que vive con su tía abuela Charlotte en el campo, donde no pasa casi nada. Un día sigue a un misterioso gato hasta el bosque y descubre un viejo palo de escoba y una extraña flor que sólo florece cada siete años en ese mismo bosque. El palo de escoba y la flor llevarán a Mary por encima de las nubes hasta llegar a Endor College, una escuela de magia dirigida por Madam Mumblechook y el brillante Doctor Dee. Pero allí suceden cosas terribles y después de mentir, Mary tendrá que arriesgar su vida para que todo vaya bien.



Titulo Original Mary and the Witch's Flower
Año 2017-07-08
Duracion 1h 43m
Director
Reparto , , , , , , , ,
Productora
Genero
Titulo original Mary and the Witch's Flower
Audio Español Latino AC3 5.1 DVD- Japones AC3 5.1 BLURAY
Calidad: 1080p Resolucion: 1920x1036 Formato: MKV
Encoder: chesse92 Peso: 3.21 GiB Duracion: 1h 43m
Subtitulos: Español Latino SRT
  • No hay video embed

Mary And The Witch's Flower (2017) HD 1080p Latino.mkv
Format: Matroska
Format version: Version 4
File size : 3.21 GiB
Duration: 1 h 42 min
Overall bit rate: 4 461 kb/s
Movie name: CinemaniaHDD.net
Encoded date: UTC 2018-12-18 23:50:59 / UTC 2018-12-18T15:09:33Z
Writing application : mkvmerge v28.2.0 ('The Awakening') 64-bit
Writing library : libebml v1.3.6 + libmatroska v1.4.9 / Lavf57.7.2

Video
ID: 1
Format: AVC
Format/Info : Advanced Video Codec
Format profile: High@L4.1
Format settings : CABAC / 4 Ref Frames
Format settings, CABAC: Yes
Format settings, ReFrames : 4 frames
Codec ID: V_MPEG4/ISO/AVC
Duration: 1 h 42 min
Bit rate: 3 600 kb/s
Width : 1 920 pixels
Height: 1 036 pixels
Display aspect ratio: 1.85:1
Frame rate mode : Constant
Frame rate: 23.976 (24000/1001) FPS
Color space : YUV
Chroma subsampling: 4:2:0
Bit depth : 8 bits
Scan type : Progressive
Bits/(Pixel*Frame): 0.075
Stream size : 2.61 GiB (81%)
Writing library : x264 core 155 r2901 7d0ff22
Encoding settings : cabac=1 / ref=4 / deblock=1:0:0 / analyse=0x3:0x113 / me=hex / subme=8 / psy=1 / psy_rd=1.00:0.00 / mixed_ref=1 / me_range=16 / chroma_me=1 / trellis=2 / 8x8dct=1 / cqm=0 / deadzone=21,11 / fast_pskip=1 / chroma_qp_offset=-2 / threads=32 / lookahead_threads=5 / sliced_threads=0 / nr=0 / decimate=1 / interlaced=0 / bluray_compat=0 / constrained_intra=0 / bframes=3 / b_pyramid=2 / b_adapt=1 / b_bias=0 / direct=3 / weightb=1 / open_gop=0 / weightp=2 / keyint=240 / keyint_min=24 / scenecut=40 / intra_refresh=0 / rc_lookahead=50 / rc=abr / mbtree=1 / bitrate=3600 / ratetol=1.0 / qcomp=0.60 / qpmin=0 / qpmax=69 / qpstep=4 / vbv_maxrate=62500 / vbv_bufsize=78125 / nal_hrd=none / filler=0 / ip_ratio=1.40 / aq=1:1.00
Default : Yes
Forced: No
Color range : Limited
Color primaries : BT.709
Transfer characteristics: BT.709
Matrix coefficients : BT.709

Audio #1
ID: 2
Format: AC-3
Format/Info : Audio Coding 3
Commercial name : Dolby Digital
Codec ID: A_AC3
Duration: 1 h 42 min
Bit rate mode : Constant
Bit rate: 384 kb/s
Channel(s): 6 channels
Channel layout: L R C LFE Ls Rs
Sampling rate : 48.0 kHz
Frame rate: 31.250 FPS (1536 SPF)
Bit depth : 16 bits
Compression mode: Lossy
Delay relative to video : 8 s 95 ms
Stream size : 282 MiB (9%)
Language: Spanish
Service kind: Complete Main
Default : Yes
Forced: No

Audio #2
ID: 3
Format: AC-3
Format/Info : Audio Coding 3
Commercial name : Dolby Digital
Codec ID: A_AC3
Duration: 1 h 42 min
Bit rate mode : Constant
Bit rate: 448 kb/s
Channel(s): 6 channels
Channel layout: L R C LFE Ls Rs
Sampling rate : 48.0 kHz
Frame rate: 31.250 FPS (1536 SPF)
Bit depth : 16 bits
Compression mode: Lossy
Stream size : 330 MiB (10%)
Title : Surround
Language: Japanese
Service kind: Complete Main
Default : No
Forced: No

Text
ID: 4
Format: UTF-8
Codec ID: S_TEXT/UTF8
Codec ID/Info : UTF-8 Plain Text
Duration: 1 h 42 min
Bit rate: 38 b/s
Count of elements : 1014
Stream size : 29.1 KiB (0%)
Default : Yes
Forced: No

Menu
00:00:00.000: :Chapter 1
00:02:55.175: :Chapter 2
00:07:31.326: :Chapter 3
00:10:44.394: :Chapter 4
00:15:12.120: :Chapter 5
00:20:38.028: :Chapter 6
00:25:03.711: :Chapter 7
00:29:53.542: :Chapter 8
00:35:11.860: :Chapter 9
00:38:31.309: :Chapter 10
00:44:24.912: :Chapter 11
00:48:16.727: :Chapter 12
00:52:08.375: :Chapter 13
00:56:55.203: :Chapter 14
00:59:35.781: :Chapter 15
01:02:16.233: :Chapter 16
01:04:25.862: :Chapter 17
01:09:29.624: :Chapter 18
01:13:30.698: :Chapter 19
01:21:17.081: :Chapter 20
01:23:49.274: :Chapter 21
01:28:16.917: :Chapter 22
01:32:49.397: :Chapter 23
01:37:45.443: :Chapter 24

Download Links

CONTRASEÑA PARA DESCOMPRIMIR

APORTES NUEVOS

cinemaniahdd.com

APORTES VIEJOS

CinemaniaHD.org

COMPRA O RENUEVA TU PREMIUM DE UPLOADED DESDE EL SIGUIENTE LINK:

http://ul.to/ref/9821430

SI GUSTAS PUEDES SEGUIRNOS EN LAS REDES SOCIALES

Facebook

Twitter

Post Relacionados