Matar o morir (2018) Full 1080p Latino

Descargar Matar o morir (2018) Full 1080p Latino, Mega, Google Drive, Torrent. LRiley North (Jennifer Garner) despierta de un coma y se entera de que su marido y su hija han sido brutalmente asesinados. Cuando años después el sistema que debe juzgar a los asesinos demuestra su fracaso, Riley decide tomarse la justicia por su mano.



Titulo original Peppermint
Audio Español Latino AC3 5.1 DVD - Ingles DTS 5.1 BLURAY
Calidad: Full 1080p Resolucion: 1920x1080p Formato: MKV
Encoder: CinefiloCool Peso: 2.97 GiB Duracion: 1h 41m
Subtitulos: Español Latino PGS - Ingles PGS
  • No hay video embed

Peppermint (2018) Full 1080p Latino.mkv
Format: Matroska
Format version: Version 4
File size : 2.97 GiB
Duration: 1 h 42 min
Overall bit rate: 4 163 kb/s
Movie name: CinemaniaHDD.Net
Encoded date: UTC 2018-12-24 23:24:55
Writing application : mkvmerge v28.2.0 ('The Awakening') 64-bit
Writing library : libebml v1.3.6 + libmatroska v1.4.9

Video
ID: 1
Format: AVC
Format/Info : Advanced Video Codec
Format profile: High@L4.1
Format settings : CABAC / 4 Ref Frames
Format settings, CABAC: Yes
Format settings, ReFrames : 4 frames
Codec ID: V_MPEG4/ISO/AVC
Duration: 1 h 42 min
Bit rate: 2 248 kb/s
Width : 1 920 pixels
Height: 1 080 pixels
Display aspect ratio: 16:9
Frame rate mode : Constant
Frame rate: 23.976 (24000/1001) FPS
Color space : YUV
Chroma subsampling: 4:2:0
Bit depth : 8 bits
Scan type : Progressive
Bits/(Pixel*Frame): 0.045
Stream size : 1.60 GiB (54%)
Title : Full HD1080p [Bluray]
Writing library : x264 core 155 r2901 7d0ff22
Encoding settings : cabac=1 / ref=4 / deblock=1:0:0 / analyse=0x3:0x133 / me=esa / subme=10 / psy=1 / psy_rd=1.00:0.00 / mixed_ref=1 / me_range=24 / chroma_me=1 / trellis=2 / 8x8dct=1 / cqm=0 / deadzone=21,11 / fast_pskip=1 / chroma_qp_offset=-2 / threads=34 / lookahead_threads=5 / sliced_threads=0 / nr=0 / decimate=1 / interlaced=0 / bluray_compat=0 / constrained_intra=0 / bframes=8 / b_pyramid=2 / b_adapt=2 / b_bias=0 / direct=3 / weightb=1 / open_gop=0 / weightp=2 / keyint=240 / keyint_min=24 / scenecut=40 / intra_refresh=0 / rc_lookahead=60 / rc=crf / mbtree=1 / crf=20.0 / qcomp=0.60 / qpmin=0 / qpmax=69 / qpstep=4 / vbv_maxrate=62500 / vbv_bufsize=78125 / crf_max=0.0 / nal_hrd=none / filler=0 / ip_ratio=1.40 / aq=1:1.00
Default : Yes
Forced: No
Color range : Limited
Color primaries : BT.709
Transfer characteristics: BT.709
Matrix coefficients : BT.709

Audio #1
ID: 2
Format: AC-3
Format/Info : Audio Coding 3
Commercial name : Dolby Digital
Codec ID: A_AC3
Duration: 1 h 42 min
Bit rate mode : Constant
Bit rate: 384 kb/s
Channel(s): 6 channels
Channel layout: L R C LFE Ls Rs
Sampling rate : 44.1 kHz
Frame rate: 28.711 FPS (1536 SPF)
Bit depth : 16 bits
Compression mode: Lossy
Stream size : 280 MiB (9%)
Title : AC3_5.1_DVD_Esp
Language: Spanish
Service kind: Complete Main
Default : Yes
Forced: Yes

Audio #2
ID: 3
Format: DTS
Format/Info : Digital Theater Systems
Codec ID: A_DTS
Duration: 1 h 42 min
Bit rate mode : Constant
Bit rate: 1 509 kb/s
Channel(s): 6 channels
Channel layout: C L R Ls Rs LFE
Sampling rate : 48.0 kHz
Frame rate: 93.750 FPS (512 SPF)
Bit depth : 24 bits
Compression mode: Lossy
Stream size : 1.08 GiB (36%)
Title : DTS_5.1_Bluray_Eng
Language: English
Default : No
Forced: No

Text #1
ID: 4
Format: PGS
Muxing mode : zlib
Codec ID: S_HDMV/PGS
Codec ID/Info : Picture based subtitle format used on BDs/HD-DVDs
Duration: 1 h 39 min
Bit rate: 28.4 kb/s
Count of elements : 2210
Stream size : 20.3 MiB (1%)
Title : Sub_Esp [PGS]
Language: Spanish
Default : No
Forced: No

Text #2
ID: 5
Format: PGS
Muxing mode : zlib
Codec ID: S_HDMV/PGS
Codec ID/Info : Picture based subtitle format used on BDs/HD-DVDs
Duration: 1 h 33 min
Bit rate: 38.8 kb/s
Count of elements : 2532
Stream size : 26.0 MiB (1%)
Title : Sub_Eng [PGS]
Language: English
Default : No
Forced: No

Menu
00:00:00.000: :Chapter 1
00:05:49.599: :Chapter 2
00:09:23.855: :Chapter 3
00:14:09.599: :Chapter 4
00:20:52.001: :Chapter 5
00:26:34.384: :Chapter 6
00:30:55.103: :Chapter 7
00:35:11.693: :Chapter 8
00:40:33.222: :Chapter 9
00:45:56.796: :Chapter 10
00:51:05.229: :Chapter 11
00:56:15.873: :Chapter 12
01:01:48.747: :Chapter 13
01:05:45.108: :Chapter 14
01:11:02.008: :Chapter 15
01:16:12.526: :Chapter 16
01:19:50.244: :Chapter 17
01:25:28.915: :Chapter 18
01:30:58.328: :Chapter 19
01:35:04.574: :Chapter 20

Download Links

CONTRASEÑA PARA DESCOMPRIMIR

APORTES NUEVOS

cinemaniahdd.com

APORTES VIEJOS

CinemaniaHD.org

COMPRA O RENUEVA TU PREMIUM DE UPLOADED DESDE EL SIGUIENTE LINK:

http://ul.to/ref/9821430

SI GUSTAS PUEDES SEGUIRNOS EN LAS REDES SOCIALES

Facebook

Twitter

Post Relacionados