Megalodón (2018) Full 1080p Latino

Un sumergible de aguas profundas que forma parte de un programa internacional de vigilancia submarina, ha sido atacado por una enorme criatura que se creía extinta. Ahora está averiado en el fondo de la fosa oceánica más profunda del Pacífico con su tripulación atrapada en el interior. El tiempo se acaba y, en contra de los deseos de su hija Suyin (Li Bingbing), un visionario oceanógrafo chino (Winston Chao) contrata a Jonas Taylor (Jason Statham), un especialista en rescate en aguas profundas. Su misión será salvar a la tripulación y también al océano de una amenaza imparable: un tiburón prehistórico de 23 metros conocido con el nombre de Megalodón.



Titulo original The Meg
Audio Español Latino AC3 5.1 BLURAY - Ingles DTS 5.1 BLURAY
Calidad: Full 1080p Resolucion: 1920x1080p Formato: MKV
Encoder: Dracarys Peso: 6.51 GiB Duracion: 1h 53m
Subtitulos: Español Latino PGS - Ingles PGS
  • No hay video embed

Format                                   : Matroska
Format version                           : Version 4 / Version 2
File size                                : 6.51 GiB
Duration                                 : 1 h 53 min
Overall bit rate                         : 8 236 kb/s
Movie name                               : CinemaniaHDD.net
Encoded date                             : UTC 2018-11-07 23:00:42 / UTC 2018-11-07T14:48:58Z
Writing application                      : mkvmerge v15.0.0 ('Duel with the Devil') 64-bit
Writing library                          : libebml v1.3.5 + libmatroska v1.4.5 / Lavf57.7.2

Video
ID                                       : 1
Format                                   : AVC
Format/Info                              : Advanced Video Codec
Format profile                           : High@L4.1
Format settings                          : CABAC / 4 Ref Frames
Format settings, CABAC                   : Yes
Format settings, RefFrames               : 4 frames
Codec ID                                 : V_MPEG4/ISO/AVC
Duration                                 : 1 h 53 min
Bit rate                                 : 6 115 kb/s
Width                                    : 1 920 pixels
Height                                   : 1 080 pixels
Display aspect ratio                     : 16:9
Frame rate mode                          : Constant
Frame rate                               : 23.976 (24000/1001) FPS
Color space                              : YUV
Chroma subsampling                       : 4:2:0
Bit depth                                : 8 bits
Scan type                                : Progressive
Bits/(Pixel*Frame)                       : 0.123
Stream size                              : 4.84 GiB (74%)
Writing library                          : x264 core 148 r2708 86b7198
Encoding settings                        : cabac=1 / ref=4 / deblock=1:0:0 / analyse=0x3:0x133 / me=esa / subme=10 / psy=1 / psy_rd=1.00:0.00 / mixed_ref=1 / me_range=24 / chroma_me=1 / trellis=2 / 8x8dct=1 / cqm=0 / deadzone=21,11 / fast_pskip=1 / chroma_qp_offset=-2 / threads=34 / lookahead_threads=5 / sliced_threads=0 / nr=0 / decimate=1 / interlaced=0 / bluray_compat=0 / constrained_intra=0 / bframes=8 / b_pyramid=2 / b_adapt=2 / b_bias=0 / direct=3 / weightb=1 / open_gop=0 / weightp=2 / keyint=240 / keyint_min=24 / scenecut=40 / intra_refresh=0 / rc_lookahead=60 / rc=crf / mbtree=1 / crf=20.0 / qcomp=0.60 / qpmin=0 / qpmax=69 / qpstep=4 / vbv_maxrate=62500 / vbv_bufsize=78125 / crf_max=0.0 / nal_hrd=none / filler=0 / ip_ratio=1.40 / aq=1:1.00
Language                                 : English
Default                                  : Yes
Forced                                   : No
Color range                              : Limited
Color primaries                          : BT.709
Transfer characteristics                 : BT.709
Matrix coefficients                      : BT.709
Statistics Tags Issue                    : mkvmerge v15.0.0 ('Duel with the Devil') 64-bit 2018-11-07 23:00:42 / mkvmerge v15.0.0 ('Duel with the Devil') 64-bit 2018-11-07 23:00:42 / UTC 2018-11-07T14:48:58Z
FromStats_BitRate                        : 6256064
FromStats_Duration                       : 01:53:13.620000000
FromStats_FrameCount                     : 162884
FromStats_StreamSize                     : 5312665898

Audio #1
ID                                       : 2
Format                                   : AC-3
Format/Info                              : Audio Coding 3
Format settings, Endianness              : Big
Codec ID                                 : A_AC3
Duration                                 : 1 h 53 min
Bit rate mode                            : Constant
Bit rate                                 : 448 kb/s
Channel(s)                               : 6 channels
Channel positions                        : Front: L C R, Side: L R, LFE
Sampling rate                            : 48.0 kHz
Frame rate                               : 31.250 FPS (1536 SPF)
Bit depth                                : 16 bits
Compression mode                         : Lossy
Stream size                              : 363 MiB (5%)
Language                                 : Spanish
Service kind                             : Complete Main
Default                                  : Yes
Forced                                   : No
Statistics Tags Issue                    : mkvmerge v15.0.0 ('Duel with the Devil') 64-bit 2018-11-07 23:00:42 / mkvmerge v15.0.0 ('Duel with the Devil') 64-bit 2018-11-07 23:00:42 / UTC 2018-11-07T14:48:58Z
FromStats_BitRate                        : 448000
FromStats_Duration                       : 01:53:13.632000000
FromStats_FrameCount                     : 212301
FromStats_StreamSize                     : 380443392

Audio #2
ID                                       : 3
Format                                   : DTS
Format/Info                              : Digital Theater Systems
Mode                                     : 16
Format settings, Endianness              : Big
Codec ID                                 : A_DTS
Duration                                 : 1 h 53 min
Bit rate mode                            : Constant
Bit rate                                 : 1 509 kb/s
Channel(s)                               : 6 channels
Channel positions                        : Front: L C R, Side: L R, LFE
Sampling rate                            : 48.0 kHz
Frame rate                               : 93.750 FPS (512 SPF)
Bit depth                                : 16 bits
Compression mode                         : Lossy
Stream size                              : 1.19 GiB (18%)
Language                                 : English
Default                                  : No
Forced                                   : No
Statistics Tags Issue                    : mkvmerge v15.0.0 ('Duel with the Devil') 64-bit 2018-11-07 23:00:42 / mkvmerge v15.0.0 ('Duel with the Devil') 64-bit 2018-11-07 23:00:42 / UTC 2018-11-07T14:48:58Z
FromStats_BitRate                        : 1508999
FromStats_Duration                       : 01:53:13.611000000
FromStats_FrameCount                     : 636901
FromStats_StreamSize                     : 1281444812

Text #1
ID                                       : 4
Format                                   : PGS
Muxing mode                              : zlib
Codec ID                                 : S_HDMV/PGS
Codec ID/Info                            : Picture based subtitle format used on BDs/HD-DVDs
Language                                 : English
Default                                  : No
Forced                                   : No
Statistics Tags Issue                    : mkvmerge v15.0.0 ('Duel with the Devil') 64-bit 2018-11-07 23:00:42 / mkvmerge v15.0.0 ('Duel with the Devil') 64-bit 2018-11-07 23:00:42 / UTC 2018-11-07T14:48:58Z
FromStats_BitRate                        : 33947
FromStats_Duration                       : 01:52:08.430000000
FromStats_FrameCount                     : 2960
FromStats_StreamSize                     : 28551328

Text #2
ID                                       : 5
Format                                   : PGS
Muxing mode                              : zlib
Codec ID                                 : S_HDMV/PGS
Codec ID/Info                            : Picture based subtitle format used on BDs/HD-DVDs
Language                                 : Spanish
Default                                  : No
Forced                                   : No
Statistics Tags Issue                    : mkvmerge v15.0.0 ('Duel with the Devil') 64-bit 2018-11-07 23:00:42 / mkvmerge v15.0.0 ('Duel with the Devil') 64-bit 2018-11-07 23:00:42 / UTC 2018-11-07T14:48:58Z
FromStats_BitRate                        : 27687
FromStats_Duration                       : 01:52:29.702000000
FromStats_FrameCount                     : 2780
FromStats_StreamSize                     : 23360708

Text #3
ID                                       : 6
Format                                   : PGS
Muxing mode                              : zlib
Codec ID                                 : S_HDMV/PGS
Codec ID/Info                            : Picture based subtitle format used on BDs/HD-DVDs
Title                                    : Forzados
Language                                 : Spanish
Default                                  : Yes
Forced                                   : Yes
Statistics Tags Issue                    : mkvmerge v15.0.0 ('Duel with the Devil') 64-bit 2018-11-07 23:00:42 / mkvmerge v15.0.0 ('Duel with the Devil') 64-bit 2018-11-07 23:00:42 / UTC 2018-11-07T14:48:58Z
FromStats_BitRate                        : 1801
FromStats_Duration                       : 01:52:10.349000000
FromStats_FrameCount                     : 196
FromStats_StreamSize                     : 1515469

Menu
00:00:00.000                             : :Chapter 1
00:08:48.695                             : :Chapter 2
00:18:14.260                             : :Chapter 3
00:27:09.878                             : :Chapter 4
00:39:30.535                             : :Chapter 5
00:49:10.990                             : :Chapter 6
00:58:01.478                             : :Chapter 7
01:08:22.890                             : :Chapter 8
01:19:45.948                             : :Chapter 9
01:30:04.399                             : :Chapter 10
01:42:40.988                             : :Chapter 11

 

Download Links

CONTRASEÑA PARA DESCOMPRIMIR

APORTES NUEVOS

cinemaniahdd.com

APORTES VIEJOS

CinemaniaHD.org

COMPRA O RENUEVA TU PREMIUM DE UPLOADED DESDE EL SIGUIENTE LINK:

http://ul.to/ref/9821430

SI GUSTAS PUEDES SEGUIRNOS EN LAS REDES SOCIALES

Facebook

Twitter

Post Relacionados