Mentes poderosas (2018) 1080p Latino

Descargar Mentes poderosas (2018) 1080p Latino; Mega, Google Drive. Encarcelados en un mundo adulto donde todos los menores de 18 años le temen, un grupo de adolescentes forman una resistencia para contraatacar y reclamar el control de su futuro.



Titulo original The Darkest Minds
Audio Español Latino AC3 5.1 BLURAY - Ingles AC3 5.1 BLURAY
Calidad: 1080p Resolucion: 1920x808p Formato: MKV
Encoder: CinefiloCool Peso: 3.18 GiB Duracion: 1h 45m
Subtitulos: Español Latino SRT- FORZADOS SRT
  • No hay video embed

Mentes Poderosas (2018) 1080p Latino.mkv
Format: Matroska
Format version: Version 4 / Version 2
File size : 3.18 GiB
Duration: 1 h 43 min
Overall bit rate: 4 382 kb/s
Movie name: CinemaniaHDD.Net
Encoded date: UTC 2018-10-20 01:07:01 / UTC 2018-10-19T04:11:16Z
Writing application : mkvmerge v25.0.0 ('Prog Noir') 64-bit
Writing library : libebml v1.3.6 + libmatroska v1.4.9 / Lavf57.7.2

Video
ID: 1
Format: AVC
Format/Info : Advanced Video Codec
Format profile: High@L4.1
Format settings : CABAC / 5 Ref Frames
Format settings, CABAC: Yes
Format settings, RefFrames: 5 frames
Codec ID: V_MPEG4/ISO/AVC
Duration: 1 h 43 min
Bit rate: 3 500 kb/s
Width : 1 920 pixels
Height: 808 pixels
Display aspect ratio: 2.40:1
Frame rate mode : Constant
Frame rate: 23.976 (24000/1001) FPS
Color space : YUV
Chroma subsampling: 4:2:0
Bit depth : 8 bits
Scan type : Progressive
Bits/(Pixel*Frame): 0.094
Stream size : 2.46 GiB (78%)
Title : HD1080p [Bluray]
Writing library : x264 core 155 r2893 b00bcaf
Encoding settings : cabac=1 / ref=5 / deblock=1:0:0 / analyse=0x3:0x113 / me=hex / subme=8 / psy=1 / psy_rd=1.00:0.00 / mixed_ref=1 / me_range=16 / chroma_me=1 / trellis=2 / 8x8dct=1 / cqm=0 / deadzone=21,11 / fast_pskip=1 / chroma_qp_offset=-2 / threads=25 / lookahead_threads=4 / sliced_threads=0 / nr=0 / decimate=1 / interlaced=0 / bluray_compat=0 / constrained_intra=0 / bframes=3 / b_pyramid=2 / b_adapt=1 / b_bias=0 / direct=3 / weightb=1 / open_gop=0 / weightp=2 / keyint=240 / keyint_min=24 / scenecut=40 / intra_refresh=0 / rc_lookahead=50 / rc=abr / mbtree=1 / bitrate=3500 / ratetol=1.0 / qcomp=0.60 / qpmin=0 / qpmax=69 / qpstep=4 / vbv_maxrate=62500 / vbv_bufsize=78125 / nal_hrd=none / filler=0 / ip_ratio=1.40 / aq=1:1.00
Default : Yes
Forced: No
Color range : Limited
Color primaries : BT.709
Transfer characteristics: BT.709
Matrix coefficients : BT.709
Statistics Tags Issue : mkvmerge v25.0.0 ('Prog Noir') 64-bit 2018-10-20 01:07:01 / mkvmerge v25.0.0 ('Prog Noir') 64-bit 2018-10-20 01:07:01 / UTC 2018-10-19T04:11:16Z
FromStats_BitRate : 3483905
FromStats_Duration: 01:43:47.597000000
FromStats_FrameCount: 149313
FromStats_StreamSize: 2712045125

Audio #1
ID: 2
Format: AC-3
Format/Info : Audio Coding 3
Format settings, Endianness : Big
Codec ID: A_AC3
Duration: 1 h 43 min
Bit rate mode : Constant
Bit rate: 448 kb/s
Channel(s): 6 channels
Channel positions : Front: L C R, Side: L R, LFE
Sampling rate : 48.0 kHz
Frame rate: 31.250 FPS (1536 SPF)
Bit depth : 16 bits
Compression mode: Lossy
Delay relative to video : -5 ms
Stream size : 333 MiB (10%)
Title : AC3_5.1_Bluray_Esp
Language: Spanish
Service kind: Complete Main
Default : Yes
Forced: Yes
Statistics Tags Issue : mkvmerge v25.0.0 ('Prog Noir') 64-bit 2018-10-20 01:07:01 / mkvmerge v25.0.0 ('Prog Noir') 64-bit 2018-10-20 01:07:01 / UTC 2018-10-19T04:11:16Z
FromStats_BitRate : 448000
FromStats_Duration: 01:43:47.616000000
FromStats_FrameCount: 194613
FromStats_StreamSize: 348746496

Audio #2
ID: 3
Format: AC-3
Format/Info : Audio Coding 3
Format settings, Endianness : Big
Codec ID: A_AC3
Duration: 1 h 43 min
Bit rate mode : Constant
Bit rate: 448 kb/s
Channel(s): 6 channels
Channel positions : Front: L C R, Side: L R, LFE
Sampling rate : 48.0 kHz
Frame rate: 31.250 FPS (1536 SPF)
Bit depth : 16 bits
Compression mode: Lossy
Stream size : 333 MiB (10%)
Title : AC3_5.1_Bluray_Eng
Language: English
Service kind: Complete Main
Default : No
Forced: No
Statistics Tags Issue : mkvmerge v25.0.0 ('Prog Noir') 64-bit 2018-10-20 01:07:01 / mkvmerge v25.0.0 ('Prog Noir') 64-bit 2018-10-20 01:07:01 / UTC 2018-10-19T04:11:16Z
FromStats_BitRate : 448000
FromStats_Duration: 01:43:47.584000000
FromStats_FrameCount: 194612
FromStats_StreamSize: 348744704

Text #1
ID: 4
Format: UTF-8
Codec ID: S_TEXT/UTF8
Codec ID/Info : UTF-8 Plain Text
Title : Sub_Forzados
Language: Spanish
Default : Yes
Forced: Yes
Statistics Tags Issue : mkvmerge v25.0.0 ('Prog Noir') 64-bit 2018-10-20 01:07:01 / mkvmerge v25.0.0 ('Prog Noir') 64-bit 2018-10-20 01:07:01 / UTC 2018-10-19T04:11:16Z
FromStats_BitRate : 0
FromStats_Duration: 01:04:37.753000000
FromStats_FrameCount: 15
FromStats_StreamSize: 386

Text #2
ID: 5
Format: UTF-8
Codec ID: S_TEXT/UTF8
Codec ID/Info : UTF-8 Plain Text
Title : Sub_Esp
Language: Spanish
Default : No
Forced: No
Statistics Tags Issue : mkvmerge v25.0.0 ('Prog Noir') 64-bit 2018-10-20 01:07:01 / mkvmerge v25.0.0 ('Prog Noir') 64-bit 2018-10-20 01:07:01 / UTC 2018-10-19T04:11:16Z
FromStats_BitRate : 48
FromStats_Duration: 01:36:28.363000000
FromStats_FrameCount: 1283
FromStats_StreamSize: 35359

Menu
00:00:00.000: :00:00:00.000
00:03:53.358: :00:03:53.358
00:09:40.038: :00:09:40.038
00:14:33.748: :00:14:33.748
00:19:26.957: :00:19:26.957
00:23:35.539: :00:23:35.539
00:26:24.166: :00:26:24.166
00:30:50.932: :00:30:50.932
00:35:35.508: :00:35:35.342
00:41:21.562: :00:41:21.562
00:47:22.923: :00:47:22.923
00:51:48.355: :00:51:48.314
00:55:55.227: :00:55:55.227
00:59:32.819: :00:59:32.819
01:03:33.685: :01:03:33.685
01:08:40.617: :01:08:40.616
01:12:14.413: :01:12:14.247
01:14:11.447: :01:14:11.447
01:18:01.802: :01:18:01.802
01:20:54.516: :01:20:54.516
01:23:28.003: :01:23:28.003
01:26:56.878: :01:26:56.878
01:29:25.110: :01:29:24.985
01:37:59.957: :01:37:59.957

Download Links

CONTRASEÑA PARA DESCOMPRIMIR

APORTES NUEVOS

cinemaniahdd.com

APORTES VIEJOS

CinemaniaHD.org

COMPRA O RENUEVA TU PREMIUM DE UPLOADED DESDE EL SIGUIENTE LINK:

http://ul.to/ref/9821430

SI GUSTAS PUEDES SEGUIRNOS EN LAS REDES SOCIALES

Facebook

Twitter

Post Relacionados