Mi Abuelo es un Peligro (2016) Webdl 1080p Latino

Justo antes de su boda, un joven estirado debe conducir a su abuelo, un antiguo general del Ejército, a Florida para las vacaciones de primavera.



Titulo Original Dirty Grandpa
Año 2016
Duracion 102 min.
Director
Reparto Robert De Niro, Zac Efron, Julianne Hough, Aubrey Plaza, Dermot Mulroney, Zoey Deutch, Adam Pally, Jason Mantzoukas, Mo Collins, Brandon Mychal Smith, Henry Zebrowski, Jeffrey Bowyer-Chapman, Deena Dill, Barbra Roylance, Nicole Davis
Productora Robert De Niro, Zac Efron, Julianne Hough, Aubrey Plaza, Dermot Mulroney, Zoey Deutch, Adam Pally, Jason Mantzoukas, Mo Collins, Brandon Mychal Smith, Henry Zebrowski, Jeffrey Bowyer-Chapman, Deena Dill, Barbra Roylance, Nicole Davis
Genero
Titulo original Dirty Grandpa (2016) Webdl 1080p Latino
Audio Español Latino [AC3 5.1 DVD]
Calidad: WEBDL 1080p Resolucion: 1920x796 Formato: MKV
Encoder: ADDKiQ Peso: 3.5 GB Duracion: 102 min.
Subtitulos:
  • No hay video embed

General
Complete name : K:\Dirty.Grandpa.2016.addkiqe.cinemaniahdd.com.mkv
Format : Matroska
Format version : Version 4 / Version 2
File size : 3.52 GiB
Duration : 1h 42mn
Overall bit rate : 4 927 Kbps
Encoded date : UTC 2016-05-17 04:01:17
Writing application : mkvmerge v7.9.0 ('Birds') 64bit
Writing library : libebml v1.3.1 + libmatroska v1.4.2

Video
ID : 1
Format : AVC
Format/Info : Advanced Video Codec
Format profile : High@L4
Format settings, CABAC : Yes
Format settings, ReFrames : 5 frames
Codec ID : V_MPEG4/ISO/AVC
Duration : 1h 42mn
Bit rate : 4 479 Kbps
Width : 1 920 pixels
Height : 796 pixels
Display aspect ratio : 2.40:1
Frame rate mode : Constant
Frame rate : 23.976 (24000/1001) fps
Color space : YUV
Chroma subsampling : 4:2:0
Bit depth : 8 bits
Scan type : Progressive
Bits/(Pixel*Frame) : 0.122
Stream size : 3.20 GiB (91%)
Default : Yes
Forced : No
Color range : Limited
Color primaries : BT.709
Transfer characteristics : BT.709
Matrix coefficients : BT.709

Audio
ID : 2
Format : AC-3
Format/Info : Audio Coding 3
Mode extension : CM (complete main)
Format settings, Endianness : Big
Codec ID : A_AC3
Duration : 1h 41mn
Bit rate mode : Constant
Bit rate : 448 Kbps
Channel(s) : 6 channels
Channel positions : Front: L C R, Side: L R, LFE
Sampling rate : 48.0 KHz
Frame rate : 31.250 fps (1536 spf)
Compression mode : Lossy
Delay relative to video : 21s 0ms
Stream size : 327 MiB (9%)
Title : Latino cinemaniahdd.com
Default : Yes
Forced : No

Text
ID : 3
Format : UTF-8
Codec ID : S_TEXT/UTF8
Codec ID/Info : UTF-8 Plain Text
Duration : 2s 584ms
Bit rate : 71 bps
Count of elements : 1
Stream size : 23.0 Bytes (0%)
Title : forced.FR
Language : French
Default : Yes
Forced : Yes

Download Links

CONTRASEÑA PARA DESCOMPRIMIR

APORTES NUEVOS

cinemaniahdd.com

APORTES VIEJOS

CinemaniaHD.org

COMPRA O RENUEVA TU PREMIUM DE UPLOADED DESDE EL SIGUIENTE LINK:

http://ul.to/ref/9821430

SI GUSTAS PUEDES SEGUIRNOS EN LAS REDES SOCIALES

Facebook

Twitter

Post Relacionados