Mi ex es un espía (2018) Full 1080p Latino

Audrey y Morgan son dos amigas que se ven involucradas en una conspiración internacional cuando una de ellas descubre que su ex-novio era en realidad un espía.



Titulo original The Spy Who Dumped Me
Audio Español Latino AC3 5.1 BLURAY - Ingles AC3 5.1 BLURAY
Calidad: Full 1080p Resolucion: 1920x1080p Formato: MKV
Encoder: Dracarys Peso: 5.04 GiB Duracion: 1h 57m
Subtitulos: Español Latino PGS - Ingles PGS
  • No hay video embed

Format                                   : Matroska
Format version                           : Version 4 / Version 2
File size                                : 5.04 GiB
Duration                                 : 1 h 59 min
Overall bit rate                         : 6 050 kb/s
Movie name                               : CinemaniaHDD.net
Encoded date                             : UTC 2018-10-31 00:22:09 / UTC 2018-10-30T08:42:58Z
Writing application                      : mkvmerge v15.0.0 ('Duel with the Devil') 64-bit
Writing library                          : libebml v1.3.5 + libmatroska v1.4.5 / Lavf57.7.2

Video
ID                                       : 1
Format                                   : AVC
Format/Info                              : Advanced Video Codec
Format profile                           : High@L4.1
Format settings                          : CABAC / 4 Ref Frames
Format settings, CABAC                   : Yes
Format settings, RefFrames               : 4 frames
Codec ID                                 : V_MPEG4/ISO/AVC
Duration                                 : 1 h 59 min
Bit rate                                 : 4 650 kb/s
Width                                    : 1 920 pixels
Height                                   : 1 080 pixels
Display aspect ratio                     : 16:9
Frame rate mode                          : Constant
Frame rate                               : 23.976 (24000/1001) FPS
Color space                              : YUV
Chroma subsampling                       : 4:2:0
Bit depth                                : 8 bits
Scan type                                : Progressive
Bits/(Pixel*Frame)                       : 0.094
Stream size                              : 3.87 GiB (77%)
Writing library                          : x264 core 148 r2708 86b7198
Encoding settings                        : cabac=1 / ref=4 / deblock=1:0:0 / analyse=0x3:0x133 / me=esa / subme=10 / psy=1 / psy_rd=1.00:0.00 / mixed_ref=1 / me_range=24 / chroma_me=1 / trellis=2 / 8x8dct=1 / cqm=0 / deadzone=21,11 / fast_pskip=1 / chroma_qp_offset=-2 / threads=34 / lookahead_threads=5 / sliced_threads=0 / nr=0 / decimate=1 / interlaced=0 / bluray_compat=0 / constrained_intra=0 / bframes=8 / b_pyramid=2 / b_adapt=2 / b_bias=0 / direct=3 / weightb=1 / open_gop=0 / weightp=2 / keyint=240 / keyint_min=24 / scenecut=40 / intra_refresh=0 / rc_lookahead=60 / rc=crf / mbtree=1 / crf=20.0 / qcomp=0.60 / qpmin=0 / qpmax=69 / qpstep=4 / vbv_maxrate=62500 / vbv_bufsize=78125 / crf_max=0.0 / nal_hrd=none / filler=0 / ip_ratio=1.40 / aq=1:1.00
Language                                 : English
Default                                  : Yes
Forced                                   : No
Color range                              : Limited
Color primaries                          : BT.709
Transfer characteristics                 : BT.709
Matrix coefficients                      : BT.709
Statistics Tags Issue                    : mkvmerge v15.0.0 ('Duel with the Devil') 64-bit 2018-10-31 00:22:09 / mkvmerge v15.0.0 ('Duel with the Devil') 64-bit 2018-10-31 00:22:09 / UTC 2018-10-30T08:42:58Z
FromStats_BitRate                        : 4717133
FromStats_Duration                       : 01:59:11.353000000
FromStats_FrameCount                     : 171461
FromStats_StreamSize                     : 4216735848

Audio #1
ID                                       : 2
Format                                   : AC-3
Format/Info                              : Audio Coding 3
Format settings, Endianness              : Big
Codec ID                                 : A_AC3
Duration                                 : 1 h 59 min
Bit rate mode                            : Constant
Bit rate                                 : 640 kb/s
Channel(s)                               : 6 channels
Channel positions                        : Front: L C R, Side: L R, LFE
Sampling rate                            : 48.0 kHz
Frame rate                               : 31.250 FPS (1536 SPF)
Bit depth                                : 16 bits
Compression mode                         : Lossy
Delay relative to video                  : 55 ms
Stream size                              : 546 MiB (11%)
Language                                 : Spanish
Service kind                             : Complete Main
Default                                  : Yes
Forced                                   : No
Statistics Tags Issue                    : mkvmerge v15.0.0 ('Duel with the Devil') 64-bit 2018-10-31 00:22:09 / mkvmerge v15.0.0 ('Duel with the Devil') 64-bit 2018-10-31 00:22:09 / UTC 2018-10-30T08:42:58Z
FromStats_BitRate                        : 640000
FromStats_Duration                       : 01:59:11.296000000
FromStats_FrameCount                     : 223478
FromStats_StreamSize                     : 572103680

Audio #2
ID                                       : 3
Format                                   : AC-3
Format/Info                              : Audio Coding 3
Format settings, Endianness              : Big
Codec ID                                 : A_AC3
Duration                                 : 1 h 59 min
Bit rate mode                            : Constant
Bit rate                                 : 640 kb/s
Channel(s)                               : 6 channels
Channel positions                        : Front: L C R, Side: L R, LFE
Sampling rate                            : 48.0 kHz
Frame rate                               : 31.250 FPS (1536 SPF)
Bit depth                                : 16 bits
Compression mode                         : Lossy
Delay relative to video                  : 64 ms
Stream size                              : 546 MiB (11%)
Language                                 : English
Service kind                             : Complete Main
Default                                  : No
Forced                                   : No
Statistics Tags Issue                    : mkvmerge v15.0.0 ('Duel with the Devil') 64-bit 2018-10-31 00:22:09 / mkvmerge v15.0.0 ('Duel with the Devil') 64-bit 2018-10-31 00:22:09 / UTC 2018-10-30T08:42:58Z
FromStats_BitRate                        : 640000
FromStats_Duration                       : 01:59:11.328000000
FromStats_FrameCount                     : 223479
FromStats_StreamSize                     : 572106240

Text #1
ID                                       : 4
Format                                   : PGS
Muxing mode                              : zlib
Codec ID                                 : S_HDMV/PGS
Codec ID/Info                            : Picture based subtitle format used on BDs/HD-DVDs
Language                                 : English
Default                                  : No
Forced                                   : No
Statistics Tags Issue                    : mkvmerge v15.0.0 ('Duel with the Devil') 64-bit 2018-10-31 00:22:09 / mkvmerge v15.0.0 ('Duel with the Devil') 64-bit 2018-10-31 00:22:09 / UTC 2018-10-30T08:42:58Z
FromStats_BitRate                        : 62671
FromStats_Duration                       : 01:52:35.023000000
FromStats_FrameCount                     : 4650
FromStats_StreamSize                     : 52918190

Text #2
ID                                       : 5
Format                                   : PGS
Muxing mode                              : zlib
Codec ID                                 : S_HDMV/PGS
Codec ID/Info                            : Picture based subtitle format used on BDs/HD-DVDs
Language                                 : Spanish
Default                                  : No
Forced                                   : No
Statistics Tags Issue                    : mkvmerge v15.0.0 ('Duel with the Devil') 64-bit 2018-10-31 00:22:09 / mkvmerge v15.0.0 ('Duel with the Devil') 64-bit 2018-10-31 00:22:09 / UTC 2018-10-30T08:42:58Z
FromStats_BitRate                        : 47323
FromStats_Duration                       : 01:51:49.269000000
FromStats_FrameCount                     : 3677
FromStats_StreamSize                     : 39688676

Menu
00:00:00.000                             : :Chapter 1
00:07:32.410                             : :Chapter 2
00:14:08.097                             : :Chapter 3
00:20:44.452                             : :Chapter 4
00:28:27.831                             : :Chapter 5
00:35:15.405                             : :Chapter 6
00:41:21.688                             : :Chapter 7
00:47:24.508                             : :Chapter 8
00:52:18.510                             : :Chapter 9
01:02:37.170                             : :Chapter 10
01:09:51.979                             : :Chapter 11
01:14:41.018                             : :Chapter 12
01:23:34.176                             : :Chapter 13
01:26:43.824                             : :Chapter 14
01:41:58.279                             : :Chapter 15
01:46:00.688                             : :Chapter 16
01:56:55.842                             : :Chapter 17

 

Download Links

CONTRASEÑA PARA DESCOMPRIMIR

APORTES NUEVOS

cinemaniahdd.com

APORTES VIEJOS

CinemaniaHD.org

COMPRA O RENUEVA TU PREMIUM DE UPLOADED DESDE EL SIGUIENTE LINK:

http://ul.to/ref/9821430

SI GUSTAS PUEDES SEGUIRNOS EN LAS REDES SOCIALES

Facebook

Twitter

Post Relacionados