Midnight Special (2016) 1080p FULL HD Latino – Ingles

Un hombre, Roy (Michael Shannon), y su hijo de 8 años Alton (Jaeden Lieberher) son perseguidos por el gobierno cuando el niño desarrolla poderes especiales.



Titulo Original Midnight Special
Año 2016
Duracion 111 min.
Director
Reparto Michael Shannon, Joel Edgerton, Kirsten Dunst, Adam Driver, Sam Shepard, Paul Sparks, David Jensen, Scott Haze, Garrett Hines, James Moses Black, Jaeden Lieberher
Productora Michael Shannon, Joel Edgerton, Kirsten Dunst, Adam Driver, Sam Shepard, Paul Sparks, David Jensen, Scott Haze, Garrett Hines, James Moses Black, Jaeden Lieberher
Genero
Titulo original Midnight Special (2016) 1080p FULL HD Latino – Ingles
Audio Español Latino [AC3 5.1 BD] - Ingles [DTS 5.1 BD]
Calidad: FULL HD 1080p Resolucion: 1920x1080p Formato: MKV
Encoder: ADDKiQ Peso: 4.5 GB Duracion: 111 min.
Subtitulos: Español Latino [SRT+PGS] - Ingles [PGS]
  • No hay video embed

General
Complete name : E:\Midnight.special.2016.ADDKiQ.mkv
Format : Matroska
Format version : Version 2
File size : 4.52 GiB
Duration : 1h 51mn
Overall bit rate : 5 782 Kbps
Encoded date : UTC 2016-06-11T04:23:41Z
Writing application : HandBrake 0.10.5 2016021100
Writing library : Lavf55.12.0

Video
ID : 1
Format : AVC
Format/Info : Advanced Video Codec
Format profile : High@L4.1
Format settings, CABAC : Yes
Format settings, ReFrames : 4 frames
Codec ID : V_MPEG4/ISO/AVC
Bit rate : 3 518 Kbps
Width : 1 920 pixels
Height : 1 080 pixels
Display aspect ratio : 16:9
Frame rate mode : Variable
Color space : YUV
Chroma subsampling : 4:2:0
Bit depth : 8 bits
Scan type : Progressive
Writing library : x264 core 142 r2479 dd79a61
Encoding settings : cabac=1 / ref=4 / deblock=1:0:0 / analyse=0x3:0x133 / me=tesa / subme=11 / psy=1 / psy_rd=1.00:0.00 / mixed_ref=1 / me_range=24 / chroma_me=1 / trellis=2 / 8x8dct=1 / cqm=0 / deadzone=21,11 / fast_pskip=0 / chroma_qp_offset=-2 / threads=12 / lookahead_threads=3 / sliced_threads=0 / nr=0 / decimate=1 / interlaced=0 / bluray_compat=0 / constrained_intra=0 / bframes=16 / b_pyramid=2 / b_adapt=2 / b_bias=0 / direct=3 / weightb=1 / open_gop=0 / weightp=2 / keyint=240 / keyint_min=24 / scenecut=40 / intra_refresh=0 / rc_lookahead=60 / rc=crf / mbtree=1 / crf=20.0 / qcomp=0.60 / qpmin=0 / qpmax=69 / qpstep=4 / vbv_maxrate=62500 / vbv_bufsize=78125 / crf_max=0.0 / nal_hrd=none / filler=0 / ip_ratio=1.40 / aq=1:1.00
Default : Yes
Forced : No
Color range : Limited
Color primaries : BT.709
Transfer characteristics : BT.709
Matrix coefficients : BT.709

Audio #1
ID : 2
Format : AC-3
Format/Info : Audio Coding 3
Mode extension : CM (complete main)
Format settings, Endianness : Big
Codec ID : A_AC3
Duration : 1h 51mn
Bit rate mode : Constant
Bit rate : 640 Kbps
Channel(s) : 6 channels
Channel positions : Front: L C R, Side: L R, LFE
Sampling rate : 48.0 KHz
Compression mode : Lossy
Stream size : 512 MiB (11%)
Title : Surround
Language : Spanish
Default : Yes
Forced : No

Audio #2
ID : 3
Format : DTS
Format/Info : Digital Theater Systems
Mode : 16
Format settings, Endianness : Big
Codec ID : A_DTS
Duration : 1h 51mn
Bit rate mode : Constant
Bit rate : 1 509 Kbps
Channel(s) : 6 channels
Channel positions : Front: L C R, Side: L R, LFE
Sampling rate : 48.0 KHz
Bit depth : 24 bits
Compression mode : Lossy
Stream size : 1.18 GiB (26%)
Title : Surround
Language : English
Default : No
Forced : No

Text #1
ID : 4
Format : PGS
Codec ID : S_HDMV/PGS
Codec ID/Info : Picture based subtitle format used on BDs/HD-DVDs
Language : Spanish
Default : No
Forced : No

Text #2
ID : 5
Format : PGS
Codec ID : S_HDMV/PGS
Codec ID/Info : Picture based subtitle format used on BDs/HD-DVDs
Language : English
Default : No
Forced : No

Menu
00:00:00.000 : :Chapter 1
00:12:53.289 : :Chapter 2
00:23:34.513 : :Chapter 3
00:31:31.781 : :Chapter 4
00:41:39.639 : :Chapter 5
00:51:50.207 : :Chapter 6
01:01:02.342 : :Chapter 7
01:13:30.339 : :Chapter 8
01:24:15.317 : :Chapter 9
01:34:09.160 : :Chapter 10
01:46:35.114 : :Chapter 11

Download Links

CONTRASEÑA PARA DESCOMPRIMIR

APORTES NUEVOS

cinemaniahdd.com

APORTES VIEJOS

CinemaniaHD.org

COMPRA O RENUEVA TU PREMIUM DE UPLOADED DESDE EL SIGUIENTE LINK:

http://ul.to/ref/9821430

SI GUSTAS PUEDES SEGUIRNOS EN LAS REDES SOCIALES

Facebook

Twitter

Post Relacionados